04
ноя
2018

В поисках Вивиан Майер / Finding Vivian Maier MVO (2013)


Перевод: Профессиональный (многоголосый, закадровый), cубтитры: Aнглийские неотключаемые на французскую речь
Формат: BDRip 1080i, MKV, H.264, AC3
Страна: США
Режиссер: Джон Малуф, Чарли Сискел
Жанр: документальный, биография, детектив
Продолжительность: 01:24:11
Год выпуска: 2013

В ролях: Вивиан Майер, Джон Малуф, Даниэль Арно, Симон Амеде, Марен Бэйлэндер, Ойла Бисс, Bindy Bitterman, Роджер Карлсон, Фил Донахью, Карен Фрэнк.

Описание: Вивиан Майер (1926-2009) всю жизнь работала няней, однако после смерти среди её вещей было обнаружено около ста тысяч фотографий, некоторые из которых являются настоящими шедеврами. Эта находка сделала Майер одной из величайших фотографов 20-го века. Этот фильм рассказывает о жизни женщины, которая вела такую необычную двойную жизнь.

Рейтинг на:


Видео: 1920x1080 (16:9), 23,976 fps, AVC (х264), High@L4.1, 1997 Кбит/сек, ~ 0.042 bit/pixel
Аудио#1: Русский 48 kHz, AC3 Dolby Digital, 3/2 (L,C,R,l,r) + LFE ch, ~384.00 kbps avg
Аудио #2: Английский 48 kHz, AC3 Dolby Digital, 3/2 (L,C,R,l,r) + LFE ch, ~448.00 kbps avg

MI
Общее
Формат : Matroska
Версия формата : Version 4 / Version 2
Размер файла : 1,40 Гбайт
Продолжительность : 1 ч. 24 м.
Общий поток : 2383 Кбит/сек
Дата кодирования : UTC 2018-09-01 01:12:31
Программа кодирования : mkvmerge v8.3.0 ('Over the Horizon') 64bit
Библиотека кодирования : libebml v1.3.1 + libmatroska v1.4.2

Видео
Идентификатор : 1
Формат : AVC
Формат/Информация : Advanced Video Codec
Профиль формата : High@L4.1
Настройки формата : CABAC / 4 Ref Frames
Параметр CABAC формата : Да
Параметр RefFrames формата : 4 кадра
Идентификатор кодека : V_MPEG4/ISO/AVC
Продолжительность : 1 ч. 24 м.
Битрейт : 1997 Кбит/сек
Ширина : 1920 пикселей
Высота : 1040 пикселей
Соотношение сторон : 1,85:1
Режим частоты кадров : Постоянный
Частота кадров : 23,976 (24000/1001) кадра/сек
Частота кадров в оригинале : 23,976 (23976/1000) кадра/сек
Цветовое пространство : YUV
Субдискретизация насыщенности : 4:2:0
Битовая глубина : 8 бит
Тип развёртки : Прогрессивная
Бит/(Пиксели*Кадры) : 0.042
Размер потока : 1,17 Гбайт (84%)
Заголовок : 1920x1040, 23.976 fps, 1997 kbps
Библиотека кодирования : x264 core 142 r2479 dd79a61
Настройки программы : cabac=1 / ref=4 / deblock=1:-1:-1 / analyse=0x3:0x133 / me=umh / subme=9 / psy=1 / psy_rd=1.00:0.15 / mixed_ref=1 / me_range=24 / chroma_me=1 / trellis=2 / 8x8dct=1 / cqm=0 / deadzone=21,11 / fast_pskip=0 / chroma_qp_offset=-3 / threads=48 / lookahead_threads=4 / sliced_threads=0 / nr=0 / decimate=1 / interlaced=0 / bluray_compat=0 / constrained_intra=0 / bframes=3 / b_pyramid=2 / b_adapt=2 / b_bias=0 / direct=3 / weightb=1 / open_gop=0 / weightp=2 / keyint=250 / keyint_min=23 / scenecut=40 / intra_refresh=0 / rc_lookahead=60 / rc=2pass / mbtree=1 / bitrate=1997 / ratetol=1.0 / qcomp=0.60 / qpmin=0 / qpmax=69 / qpstep=4 / cplxblur=20.0 / qblur=0.5 / vbv_maxrate=31250 / vbv_bufsize=31250 / nal_hrd=none / filler=0 / ip_ratio=1.40 / aq=1:1.00
Язык : English
Default : Да
Forced : Нет
Цветовой диапазон : Limited
Основные цвета : BT.709
Коэффициенты матрицы : BT.709

Аудио
Идентификатор : 2
Формат : AC-3
Формат/Информация : Audio Coding 3
Идентификатор кодека : A_AC3
Продолжительность : 1 ч. 24 м.
Вид битрейта : Постоянный
Битрейт : 384 Кбит/сек
Каналы : 6 каналов
Расположение каналов : Front: L C R, Side: L R, LFE
Частота : 48,0 КГц
Частота кадров : 31,250 кадров/сек (1536 SPF)
Битовая глубина : 16 бит
Метод сжатия : С потерями
Размер потока : 231 Мбайт (16%)
Заголовок : AC3, 6 ch, 384 Kbps - Doc24
Язык : Russian
ServiceKind/String : Complete Main
Default : Да
Forced : Нет


Видео / Документальное кино / Blu-Ray / BDRip / HDTV / DVD
СКАЧАТЬ БЕСПЛАТНО  [1.7 GB]