18
апр
2017

Первоклассница (1948)


Формат: DVDRip-AVC, MKV, H.264, AC3
Режиссер: Илья Фрэз
Жанр: детский
Продолжительность: 01:07:32
Год выпуска: 1948

В ролях: Тамара Макарова, Кира Головко, Татьяна Барышева, Наталья Защипина, Мила Костыкова, Елена Таранова, Тамара Зихман, Игорь Ерошин, Елена Егорова, Степан Каюков, Георгий Милляр, Ростислав Плятт

Описание: Маруся Орлова стала первоклассницей для нее началась интересная, полная событий и переживаний жизнь. Из самолюбивой и капризной девочки под воздействием учительницы и под влиянием своих новых подружек она превращается в дисциплинированную, общительную и отзывчивую ученицу.



Видео: 696x572@762x572 (4:3), 25 fps, AVC MPEG-4 (H.264), High@L4.1 ~2115 kbps, 0.213 bit/pixel
Аудио: 48 kHz, AC3 Dolby Digital, 2 ch, 192 kbps

Отчет MediaInfo
Формат : Matroska
Версия формата : Version 2
Размер файла : 1,09 Гбайт
Продолжительность : 1 ч. 7 м.
Общий поток : 2309 Кбит/сек
Дата кодирования : UTC 2015-07-28 13:33:33
Программа кодирования : mkvmerge v6.1.0 ('Old Devil') built on Mar 4 2013 09:10:42
Библиотека кодирования : libebml v1.3.0 + libmatroska v1.4.0

Видео
Идентификатор : 1
Формат : AVC
Формат/Информация : Advanced Video Codec
Профиль формата : High@L4.1
Параметр CABAC формата : Да
Параметр ReFrames формата : 8 кадров
Идентификатор кодека : V_MPEG4/ISO/AVC
Продолжительность : 1 ч. 7 м.
Битрейт : 2115 Кбит/сек
Ширина : 696 пикселей
Высота : 572 пикселя
Соотношение сторон : 4:3
Режим частоты кадров : Постоянный
Частота кадров : 25,000 кадров/сек
Цветовое пространство : YUV
Субдискретизация насыщенности : 4:2:0
Битовая глубина : 8 бит
Тип развёртки : Прогрессивная
Бит/(Пиксели*Кадры) : 0.213
Размер потока : 1000 Мбайт (90%)
Библиотека кодирования : x264 core 130 r2273 b3065e6
Настройки программы : cabac=1 / ref=8 / deblock=1:-2:-1 / analyse=0x3:0x113 / me=umh / subme=10 / psy=1 / psy_rd=1.00:0.05 / mixed_ref=1 / me_range=32 / chroma_me=1 / trellis=2 / 8x8dct=1 / cqm=0 / deadzone=21,11 / fast_pskip=0 / chroma_qp_offset=-3 / threads=6 / lookahead_threads=1 / sliced_threads=0 / nr=0 / decimate=0 / interlaced=0 / bluray_compat=0 / constrained_intra=0 / bframes=8 / b_pyramid=2 / b_adapt=2 / b_bias=0 / direct=3 / weightb=1 / open_gop=0 / weightp=2 / keyint=250 / keyint_min=25 / scenecut=40 / intra_refresh=0 / rc=2pass / mbtree=0 / bitrate=2115 / ratetol=1.0 / qcomp=0.60 / qpmin=0 / qpmax=69 / qpstep=4 / cplxblur=20.0 / qblur=0.5 / ip_ratio=1.40 / pb_ratio=1.30 / aq=1:1.00
Default : Да
Forced : Нет

Аудио
Идентификатор : 2
Формат : AC-3
Формат/Информация : Audio Coding 3
Расширение режима : CM (complete main)
Параметр Endianness формата : Big
Идентификатор кодека : A_AC3
Продолжительность : 1 ч. 7 м.
Вид битрейта : Постоянный
Битрейт : 192 Кбит/сек
Каналы : 2 канала
Расположение каналов : Front: L R
Частота : 48,0 КГц
Метод сжатия : С потерями
Размер потока : 92,7 Мбайт (8%)
Default : Да
Forced : Нет
Видео / Советское кино / Детское / Семейное кино
СКАЧАТЬ БЕСПЛАТНО  [1.1 GB]