26
июл
2018

Сайонара / Sayonara MVO (1957)

Перевод: Профессиональный (многоголосый, закадровый)
Субтитры: Русские, английские
Формат: BDRip, MKV, H.264, AC3
Страна: США
Режиссер: Джошуа Логан
Жанр: Мелодрама
Продолжительность: 02:27:28
Год выпуска: 1957

В ролях: Марлон Брандо, Патриция Оуэнс, Джеймс Гарнер, Марта Скотт, Миико Така, Миёси Умэки, Ред Баттонс, Кент Смит, Дугласс Уотсон, Рейко Куба

Описание: Майор Ллойд Грувер служит на японской военно-воздушной базе в разгар войны в Корее. Грувер видит проявления расизма со стороны американских военных по отношению к японцам: военнослужащим запрещают жениться на японках.
Будучи первое время равнодушен к такой ситуации, Грувер вынужден изменить свою позицию, когда его друг Джо Келли влюбляется в местную женщину и собирается сочетаться с ней законным браком. Келли через голову командования обращается с прошением в Конгресс.
Поддерживая своего товарища, Грувер сам влюбляется в прекрасную японскую танцовщицу Хана-оги и оказывается в таком же положении, что и Келли.


[imdb=http://www.imdb.com/title/tt0050933/]

Видео: 1280x546p (2.35:1), 23.976 fps, AVC MPEG-4 (H.264), High@L4.1 ~7150 kbps, 0.427 bit/pixel
Аудио #1: Русский: 48 kHz, AC3 Dolby Digital, 2 ch, ~192 kbps [Профессиональный (многоголосый, закадровый)]
Аудио #2: Английский: 48 kHz, AC3 Dolby Digital, 2 ch, ~192 kbps [Оригинал]

Отчет MediaInfo
Format : Matroska
Format version : Version 2
File size : 7.76 GiB
Duration : 2 h 27 min
Overall bit rate : 7 533 kb/s
Movie name : Sayonara.(1957).BDRip.720p.[envy]
Encoded date : UTC 2018-04-22 11:33:26
Writing application : mkvmerge v5.8.0 ('No Sleep / Pillow') built on Sep 2 2012 15:37:04
Writing library : libebml v1.2.3 + libmatroska v1.3.0

Video
ID : 1
Format : AVC
Format/Info : Advanced Video Codec
Format profile : High@L4.1
Format settings : CABAC / 11 Ref Frames
Format settings, CABAC : Yes
Format settings, ReFrames : 11 frames
Codec ID : V_MPEG4/ISO/AVC
Duration : 2 h 27 min
Bit rate : 7 150 kb/s
Width : 1 280 pixels
Height : 546 pixels
Display aspect ratio : 2.35:1
Frame rate mode : Constant
Frame rate : 23.976 (24000/1001) FPS
Color space : YUV
Chroma subsampling : 4:2:0
Bit depth : 8 bits
Scan type : Progressive
Bits/(Pixel*Frame) : 0.427
Stream size : 7.21 GiB (93%)
Title : Sayonara.(1957).BDRip.720p.[envy]
Writing library : x264 core 155 r2901 7d0ff22
Encoding settings : cabac=1 / ref=11 / deblock=1:-3:-3 / analyse=0x3:0x113 / me=umh / subme=11 / psy=1 / psy_rd=1.00:0.00 / mixed_ref=1 / me_range=32 / chroma_me=1 / trellis=2 / 8x8dct=1 / cqm=0 / deadzone=21,11 / fast_pskip=0 / chroma_qp_offset=-2 / threads=12 / lookahead_threads=1 / sliced_threads=0 / nr=0 / decimate=1 / interlaced=0 / bluray_compat=0 / constrained_intra=0 / bframes=5 / b_pyramid=2 / b_adapt=2 / b_bias=0 / direct=3 / weightb=1 / open_gop=0 / weightp=2 / keyint=240 / keyint_min=23 / scenecut=40 / intra_refresh=0 / rc=2pass / mbtree=0 / bitrate=7150 / ratetol=1.0 / qcomp=0.60 / qpmin=0 / qpmax=69 / qpstep=4 / cplxblur=20.0 / qblur=0.5 / ip_ratio=1.40 / pb_ratio=1.30 / aq=1:0.70
Language : English
Default : Yes
Forced : No

Audio #1
ID : 2
Format : AC-3
Format/Info : Audio Coding 3
Codec ID : A_AC3
Duration : 2 h 27 min
Bit rate mode : Constant
Bit rate : 192 kb/s
Channel(s) : 2 channels
Channel positions : Front: L R
Sampling rate : 48.0 kHz
Frame rate : 31.250 FPS (1536 SPF)
Bit depth : 16 bits
Compression mode : Lossy
Stream size : 203 MiB (3%)
Title : MVO
Language : Russian
Service kind : Complete Main
Default : Yes
Forced : No

Audio #2
ID : 3
Format : AC-3
Format/Info : Audio Coding 3
Codec ID : A_AC3
Duration : 2 h 27 min
Bit rate mode : Constant
Bit rate : 192 kb/s
Channel(s) : 2 channels
Channel positions : Front: L R
Sampling rate : 48.0 kHz
Frame rate : 31.250 FPS (1536 SPF)
Bit depth : 16 bits
Compression mode : Lossy
Stream size : 203 MiB (3%)
Title : Eng
Language : English
Service kind : Complete Main
Default : No
Forced : No

Text #1
ID : 4
Format : UTF-8
Codec ID : S_TEXT/UTF8
Codec ID/Info : UTF-8 Plain Text
Title : Rus full
Language : Russian
Default : No
Forced : No

Text #2
ID : 5
Format : UTF-8
Codec ID : S_TEXT/UTF8
Codec ID/Info : UTF-8 Plain Text
Title : Eng full
Language : English
Default : No
Forced : No

Menu
00:00:00.000 : :Chapter 01
00:03:45.850 : :Chapter 02
00:12:31.834 : :Chapter 03
00:18:39.451 : :Chapter 04
00:24:33.597 : :Chapter 05
00:29:26.765 : :Chapter 06
00:37:38.256 : :Chapter 07
00:45:02.533 : :Chapter 08
00:50:44.750 : :Chapter 09
00:56:26.800 : :Chapter 10
01:00:01.264 : :Chapter 11
01:07:22.788 : :Chapter 12
01:14:52.571 : :Chapter 13
01:19:32.267 : :Chapter 14
01:28:22.338 : :Chapter 15
01:33:16.424 : :Chapter 16
01:38:36.410 : :Chapter 17
01:45:27.946 : :Chapter 18
01:53:59.999 : :Chapter 19
01:57:33.629 : :Chapter 20
02:01:06.676 : :Chapter 21
02:07:21.967 : :Chapter 22
02:12:30.525 : :Chapter 23
02:16:15.500 : :Chapter 24
Видео / HD/BD и DVD / HD DVD/BD/HDTV Rip
СКАЧАТЬ БЕСПЛАТНО  [7.8 GB]