11
янв
2019

Человек будущего, 2 сезон 1-5 серии из 13 / Future Man [IdeaFilm] (2019)

Перевод: Профессиональный (многоголосый, закадровый) IdeaFilm
Субтитры: отсутствуют
Формат: WEBRip, MKV, h.264, AC3
Страна: США
Режиссер: Ниша Ганатра, Эван Голдберг, Сет Роген
Жанр: Фантастика, комедия
Всего серий: 13
Продолжительность: 5 х ~00:30:00
Год выпуска: 2019

В ролях: Джош Хатчерсон, Дерек Уилсон, Эд Бегли мл, Дрю Джеймс, Роберт Крэйгхед, Джейсон Скотт Дженкинс, Кевин Калибер, Грег Брайан, Патрик Карлайл

Описание: Главный герой все еще живет с родителями и подрабатывает в исследовательском центре «Девлин», специализирующемся на сексуальных дисфункциях. Из-за болезненного периода полового созревания у Джоша низкая самооценка и плохо развиты коммуникативные навыки, поэтому юноша часто теряется в общении с женщинами. Единственное, в чем преуспевает герой, — это видеоигра Cybergeddon, действие которой происходит в мрачном будущем, где его персонаж, Человек из будущего, занимает высокую социальную позицию. Когда Джош проходит последний уровень, ему наносят визит персонажи Cybergeddon, утверждающие, что игра была всего лишь тренингом и что теперь герой избран для того, чтобы совершить путешествие в прошлое и помочь им спасти мир. Готов ли Джош к этому? Конечно, нет.

Рейтинг на: [imdb=http://www.imdb.com/title/tt4975856/]

Видео: 1920x818 (2,35:1), 23,976 fps, AVC (х264), Main@L4.1, ~4500 kbps avg, 0.180 bit/pixel
Аудио #1 Rus: :48 kHz, AC3 Dolby Digital, 2/0 (L,R) ch, ~192 kbps
Аудио #1 Eng: :48 kHz, AC3 Dolby Digital, 2/0 (L,R) ch, ~192 kbps

Внимание, присутствует реклама!

Внимание! Раздача ведётся путём добавления новых серий

Внимание! Раздача ведётся путём добавления новых серий; при каждом добавлении создаётся новый торрент. Чтобы начать докачку новой серии, пользователям необходимо сделать следующее:
(1) остановить скачивание,
(2) удалить старый торрент у себя из клиента (старые серии удалять не надо),
(3) скачать новый торрент и запустить его у себя в клиенте вместо старого, при этом указать клиенту путь в старую папку куда и должно происходить скачивание новых серий.

Ваш клиент при этом должен произвести хеширование (проверку) старой папки (если не производит сам - помогите ему сделать это), и будет докачивать только те серии которых у вас ещё нет. Старые серии при этом не удаляются, а продолжают раздаваться!

Eсли вы уже удалили старые серии, то предотвратить повторную закачку старых серий можно, отжав галочку в соответствующих местах при запуске нового торрента. По возможности, желательно не удалять старые серии как можно дольше, чтобы релизёр не столько продолжал раздавать старые серии, а смог сконцентрироваться на новых.
MediaInfo

Общее
Уникальный идентификатор : 196906475393578648889816294088630119942 (0x9422CEC6C4060ED360555B304A50AE06)
Полное имя : D:IDEAFILMFuture.Man.S02.WEBRip.1080pFuture.Man.S02E01.WEBRip.1080p-IdeaFilm.mkv
Формат : Matroska
Версия формата : Version 4
Размер файла : 1,42 Гбайт
Продолжительность : 28 м. 27 с.
Общий поток : 7168 Кбит/сек
Дата кодирования : UTC 2019-01-11 13:10:27
Программа кодирования : mkvmerge v25.0.0 ('Prog Noir') 64-bit
Библиотека кодирования : libebml v1.3.6 + libmatroska v1.4.9

Видео
Идентификатор : 1
Формат : AVC
Формат/Информация : Advanced Video Codec
Профиль формата : Main@L4.1
Настройки формата : CABAC / 4 Ref Frames
Параметр CABAC формата : Да
Параметр RefFrames формата : 4 кадра
Идентификатор кодека : V_MPEG4/ISO/AVC
Продолжительность : 28 м. 27 с.
Битрейт : 6787 Кбит/сек
Ширина : 1920 пикселей
Высота : 818 пикселей
Соотношение сторон : 2,35:1
Режим частоты кадров : Постоянный
Частота кадров : 23,976 (24000/1001) кадра/сек
Цветовое пространство : YUV
Субдискретизация насыщенности : 4:2:0
Битовая глубина : 8 бит
Тип развёртки : Прогрессивная
Бит/(Пиксели*Кадры) : 0.180
Размер потока : 1,35 Гбайт (95%)
Язык : English
Default : Да
Forced : Нет
Цветовой диапазон : Limited
Основные цвета : BT.709
Характеристики трансфера : BT.709
Коэффициенты матрицы : BT.709

Аудио #1
Идентификатор : 2
Формат : AC-3
Формат/Информация : Audio Coding 3
Коммерческое название : Dolby Digital
Идентификатор кодека : A_AC3
Продолжительность : 28 м. 27 с.
Вид битрейта : Постоянный
Битрейт : 192 Кбит/сек
Каналы : 2 канала
Channel layout : L R
Частота : 48,0 КГц
Частота кадров : 31,250 кадров/сек (1536 SPF)
Битовая глубина : 16 бит
Метод сжатия : С потерями
Размер потока : 39,1 Мбайт (3%)
Заголовок : IdeaFilm
Язык : Russian
ServiceKind/String : Complete Main
Default : Да
Forced : Нет

Аудио #2
Идентификатор : 3
Формат : AC-3
Формат/Информация : Audio Coding 3
Идентификатор кодека : A_AC3
Продолжительность : 27 м. 47 с.
Битрейт : 192 Кбит/сек
Каналы : 2 канала
Частота : 48,0 КГц
Частота кадров : 31,250 кадров/сек (1536 SPF)
Метод сжатия : С потерями
Размер потока : 38,2 Мбайт (3%)
Язык : English
Default : Нет
Forced : Нет
Ссылки
Все раздачи
Видео / Зарубежные сериалы / Разное
СКАЧАТЬ БЕСПЛАТНО  [7.3 GB]