23
окт
2013

Рокеры, 1 сезон 1-4 серии из 4 / Strange Frequency (2001)

Перевод: Профессиональный (двухголосый, закадровый), cубтитры: отсутствуют
Формат: DVDRip, AVI, XviD, MP3
Страна: США, Broadway Video, Viacom Productions Inc.
Режиссер: Мэри Ламберт, Брайан Спайсер
Жанр: комедия, ужасы, мистика, драма, триллер
Всего серий: 4
Продолжительность: 4 х 01:22:57
Год выпуска: 2001

В ролях: Эрик Робертс, Джадд Нельсон, Эрик Палладино, Брэнди Лэдфорд, Джон Тейлор, Холланд Тейлор, Кристофер Мастерсон, Дэнни Мастерсон, Киган Коннор Трейси, Тревор Уайт, Марла Соколофф, Адриан Холмс, Том Хитон, Мартин Камминс, Джейн Соерби, Кетт Тортон

Описание: 4 мининовеллы в лучших традициях Баек из склепа и Сумеречной зоны - Адская дискотека, Моё поколение, Обслуживание номеров, Больше, чем чувство. Все фильмы объединяет тема рока или его фанатов.



Видео: 720x528 (1.36:1), 25 fps, XviD MPEG-4 ~1847 kbps avg, 0.19 bit/pixel
Аудио: 48 kHz, MPEG Layer 3, 2 ch, ~192.00 kbps avg



Дополнительно: Рип от:

MI
Общее
Полное имя : E:ЗагруженныеStrange Frequencystrange.frequency.e01.buhtreker.org.ua.avi
Формат : AVI
Формат/Информация : Audio Video Interleave
Размер файла : 1,19 Гбайт
Продолжительность : 1 ч. 22 м.
Общий поток : 2050 Кбит/сек
Библиотека кодирования : VirtualDub build 32817/release

Видео
Идентификатор : 0
Формат : MPEG-4 Visual
Профиль формата : Advanced Simple@L5
Параметр BVOP формата : 2
Параметр QPel формата : Нет
Параметр GMC формата : Без точки перехода
Параметр матрицы формата : Default (MPEG)
Режим смешивания : Сжатый битовый поток
Идентификатор кодека : XVID
Идентификатор кодека/Подсказка : XviD
Продолжительность : 1 ч. 22 м.
Битрейт : 1848 Кбит/сек
Ширина : 720 пикселей
Высота : 528 пикселей
Соотношение сторон : 4:3
Частота кадров : 25,000 кадров/сек
Цветовое пространство : YUV
Субдискретизация насыщенности : 4:2:0
Битовая глубина : 8 бит
Тип развёртки : Прогрессивная
Метод сжатия : С потерями
Бит/(Пиксели*Кадры) : 0.194
Размер потока : 1,07 Гбайт (90%)
Библиотека кодирования : XviD 64

Аудио
Идентификатор : 1
Формат : MPEG Audio
Версия формата : Version 1
Профиль формата : Layer 3
Режим : Joint stereo
Идентификатор кодека : 55
Идентификатор кодека/Подсказка : MP3
Продолжительность : 1 ч. 22 м.
Вид битрейта : Постоянный
Битрейт : 192 Кбит/сек
Каналы : 2 канала
Частота : 48,0 КГц
Метод сжатия : С потерями
Размер потока : 114 Мбайт (9%)
Выравнивание : Разделение по промежуткам
Продолжительность промежутка : 40 мс. (1,00 видеокадр)
Время предзагрузки промежутка : 500 мс.
Ссылки на серии

Все раздачи


Понравился релиз? Жми +
Видео / Зарубежные сериалы / Разное
СКАЧАТЬ БЕСПЛАТНО  [4.8 GB]