09
дек
2017

Утопия / Utopia, 1-2 сезоны 1-9 серии из 16 (2014)

Перевод: Отсутствует Субтитры: есть (русские, внешние) Ron.Studio™

Формат: PDTVRip, MP4, AVC, AAC
Страна: Австралия
Режиссер: Санто Сиауро, Том Глеснер, Роб Сич
Жанр: Комедия
Всего серий: 16
Продолжительность: 9 х 00:25:00
Год выпуска: 2014-2015

В ролях: Роб Ситч, Селия Паквола, Дейв Лоусон, Китти Фланаган, Эмма-Луиза Вилсон, Люк Макнрегор, Мишель Лим Дэвидсон и другие.

Описание: Однажды на небольшую компанию свалились колоссальные инвестиции по программе национального строительства.
Что делать? С чего начать? Как объяснить случайно брошенные и подхваченные журналистами обещания?
Сериал рассказывает о буднях дружного коллектива, в котором так легко узнать любую организацию.


Рейтинг на: [imdb=http://www.imdb.com/title/tt3163562/]

Видео: 716х402 (16:9), 25 fps, AVC(x264), Main@L3.1, ~1000 kbps, 0.144 bit/pixel
Аудио: 48 kHz, AAC, 2 ch, 150 kb/s

Ссылки
Все раздачи
MediaInfo

General
Complete name : C:Utopia.AU.s01e01.mp4
Format : MPEG-4
Format profile : Base Media
Codec ID : isom
File size : 225 MiB
Duration : 26mn 23s
Overall bit rate mode : Variable
Overall bit rate : 1 193 Kbps
Encoded date : UTC 2014-08-14 04:09:08
Tagged date : UTC 2014-08-14 04:09:08
Video
ID : 1
Format : AVC
Format/Info : Advanced Video Codec
Format profile : Main@L3.1
Format settings, CABAC : Yes
Format settings, ReFrames : 8 frames
Codec ID : avc1
Codec ID/Info : Advanced Video Coding
Duration : 26mn 23s
Bit rate : 1 040 Kbps
Maximum bit rate : 4 988 Kbps
Width : 716 pixels
Height : 402 pixels
Display aspect ratio : 16:9
Frame rate mode : Constant
Frame rate : 25.000 fps
Color space : YUV
Chroma subsampling : 4:2:0
Bit depth : 8 bits
Scan type : Progressive
Bits/(Pixel*Frame) : 0.144
Stream size : 196 MiB (87%)
Writing library : x264 core 142 r2453 ea0ca51
Encoding settings : cabac=1 / ref=8 / deblock=1:-1:-1 / analyse=0x1:0x131 / me=umh / subme=9 / psy=1 / psy_rd=1.00:0.00 / mixed_ref=1 / me_range=16 / chroma_me=1 / trellis=2 / 8x8dct=0 / cqm=0 / deadzone=21,11 / fast_pskip=1 / chroma_qp_offset=-2 / threads=12 / lookahead_threads=1 / sliced_threads=0 / nr=0 / decimate=1 / interlaced=0 / bluray_compat=0 / constrained_intra=0 / bframes=3 / b_pyramid=2 / b_adapt=2 / b_bias=0 / direct=3 / weightb=1 / open_gop=0 / weightp=2 / keyint=250 / keyint_min=25 / scenecut=40 / intra_refresh=0 / rc_lookahead=60 / rc=crf / mbtree=1 / crf=19.0 / qcomp=0.60 / qpmin=0 / qpmax=69 / qpstep=4 / ip_ratio=1.40 / aq=1:1.00
Encoded date : UTC 2014-08-14 04:09:08
Tagged date : UTC 2014-08-14 04:09:10
Audio
ID : 2
Format : AAC
Format/Info : Advanced Audio Codec
Format profile : LC
Codec ID : 40
Duration : 26mn 23s
Bit rate mode : Variable
Bit rate : 149 Kbps
Maximum bit rate : 269 Kbps
Channel(s) : 2 channels
Channel positions : Front: L R
Sampling rate : 48.0 KHz
Compression mode : Lossy
Stream size : 28.1 MiB (12%)
Encoded date : UTC 2014-08-14 03:25:35
Tagged date : UTC 2014-08-14 04:09:10
Видео / Зарубежные сериалы / Разное
СКАЧАТЬ БЕСПЛАТНО  [2.0 GB]