13
мар
2018

Вне времени, 2 сезон 1 серия из 10 / Timeless [IdeaFilm] (2018)

Перевод: Профессиональный (многоголосый, закадровый) IdeaFilm
Субтитры: отсутствуют
Формат: WEBRip, MKV, h.264, AC3
Страна: США
Режиссер: Нил Маршалл, Чарльз Бисон, Билл Джирхарт
Жанр: фантастика, боевик, драма, приключения
Всего серий: 10
Продолжительность: 1 х ~00:45:00
Год выпуска: 2018

В ролях: Эбигейл Спенсер, Мэтт Лантер, Малкольм Баррет, Пэтерсон Джозеф, Сакина Джаффри, Клаудия Дурмит, Горан Вишнич, Шантель Ван Сантен, Дэвид Сатклифф, Бэйли Ноубл, Мэтт Фрюэр, Сюзанна Томпсон, Хиро Канагава, Чад Рук, Майкл Кребс, Леа Кейрнс, Тревор Лернер

Описание: Главный герой сериала Даниэль Мейер, недавно получивший должность следователя, прибывает в резидентуру ЦРУ в Берлине, чтобы раскрыть источник утечки, который снабжает информацией доносчика. Под руководством опытного следователя-ветерана Гектора ДеЖана — упрямого агента с мрачным очарованием, который работает на шефа резидентуры Стивена Фроста — Дэниел учится правилам игры в суровом мире профессиональных агентов, полном опасностей, предательства, моральных компромиссов.

Рейтинг на:

Видео: 1280x720 (16/9), 23,976 fps, AVC (х264), Main@L4.1, ~6861 kbps avg, 0.138 bit/pixel
Аудио #1 Rus: :48 kHz, AC3 Dolby Digital, 3/2 (L,C,R,l,r) + LFE ch, ~384 kbps
Аудио #1 Eng: :48 kHz, AC3 Dolby Digital, 3/2 (L,C,R,l,r) + LFE ch, ~384 kbps

Внимание, присутствует реклама!

Внимание! Раздача ведётся путём добавления новых серий

Внимание! Раздача ведётся путём добавления новых серий; при каждом добавлении создаётся новый торрент. Чтобы начать докачку новой серии, пользователям необходимо сделать следующее:
(1) остановить скачивание,
(2) удалить старый торрент у себя из клиента (старые серии удалять не надо),
(3) скачать новый торрент и запустить его у себя в клиенте вместо старого, при этом указать клиенту путь в старую папку куда и должно происходить скачивание новых серий.

Ваш клиент при этом должен произвести хеширование (проверку) старой папки (если не производит сам - помогите ему сделать это), и будет докачивать только те серии которых у вас ещё нет. Старые серии при этом не удаляются, а продолжают раздаваться!

Eсли вы уже удалили старые серии, то предотвратить повторную закачку старых серий можно, отжав галочку в соответствующих местах при запуске нового торрента. По возможности, желательно не удалять старые серии как можно дольше, чтобы релизёр не столько продолжал раздавать старые серии, а смог сконцентрироваться на новых.
MediaInfo

Общее
Уникальный идентификатор : 251456306031805731389707354499093406310 (0xBD2CB913324EA7119E0749473B90A266)
Полное имя : I:IDEAFILMTimeless.S02.WEBRip.1080pTimeless.S02E01.WEBRip.1080p-IdeaFilm.mkv
Формат : Matroska
Версия формата : Version 4 / Version 2
Размер файла : 2,30 Гбайт
Продолжительность : 43 м. 9 с.
Общий поток : 7625 Кбит/сек
Дата кодирования : UTC 2018-03-13 18:03:16
Программа кодирования : mkvmerge v12.0.0 ('Trust / Lust') 64bit
Библиотека кодирования : libebml v1.3.4 + libmatroska v1.4.5

Видео
Идентификатор : 1
Формат : AVC
Формат/Информация : Advanced Video Codec
Профиль формата : Main@L4.1
Настройки формата : CABAC / 3 Ref Frames
Параметр CABAC формата : Да
Параметр RefFrames формата : 3 кадра
Идентификатор кодека : V_MPEG4/ISO/AVC
Продолжительность : 43 м. 9 с.
Битрейт : 6861 Кбит/сек
Ширина : 1920 пикселей
Высота : 1080 пикселей
Соотношение сторон : 16:9
Режим частоты кадров : Постоянный
Частота кадров : 23,976 (24000/1001) кадра/сек
Стандарт вещания : NTSC
Цветовое пространство : YUV
Субдискретизация насыщенности : 4:2:0
Битовая глубина : 8 бит
Тип развёртки : Прогрессивная
Бит/(Пиксели*Кадры) : 0.138
Размер потока : 2,07 Гбайт (90%)
Язык : English
Default : Да
Forced : Нет
Цветовой диапазон : Limited
Основные цвета : BT.709
Характеристики трансфера : BT.709
Коэффициенты матрицы : BT.709

Аудио #1
Идентификатор : 2
Формат : AC-3
Формат/Информация : Audio Coding 3
Идентификатор кодека : A_AC3
Продолжительность : 43 м. 9 с.
Вид битрейта : Постоянный
Битрейт : 384 Кбит/сек
Каналы : 6 каналов
Расположение каналов : Front: L C R, Side: L R, LFE
Частота : 48,0 КГц
Частота кадров : 31,250 кадров/сек (1536 SPF)
Битовая глубина : 16 бит
Метод сжатия : С потерями
Размер потока : 119 Мбайт (5%)
Заголовок : IdeaFIlm
Язык : Russian
ServiceKind/String : Complete Main
Default : Да
Forced : Нет

Аудио #2
Идентификатор : 3
Формат : AC-3
Формат/Информация : Audio Coding 3
Идентификатор кодека : A_AC3
Продолжительность : 42 м. 29 с.
Битрейт : 384 Кбит/сек
Каналы : 6 каналов
Частота : 48,0 КГц
Частота кадров : 31,250 кадров/сек (1536 SPF)
Метод сжатия : С потерями
Размер потока : 117 Мбайт (5%)
Язык : English
Default : Нет
Forced : Нет
Видео / Зарубежные сериалы / Разное
СКАЧАТЬ БЕСПЛАТНО  [2.3 GB]