12
янв
2018

Волшебники, 3 сезон 1 серия из 13 / The Magicians [IdeaFilm] (2018)

Перевод: Профессиональный (многоголосый, закадровый) IdeaFilm
Субтитры: отсутствуют
Формат: WEBRip, AVI, XviD, AC3
Страна: США
Режиссер: Крис Фишер, Джошуа Батлер, Джеймс Л. Конуэй
Жанр: ужасы, фэнтези, драма
Всего серий: 13
Продолжительность: 1 х ~00:45:00
Год выпуска: 2018

В ролях: Джейсон Ральф, Стелла Маив, Оливия Тейлор Дадли, Арджун Гупта, Хейл Эйплмен, Саммер Бишил, Джейд Тейлор, Рик Уорси, Роуз Листон, Чарльз Межер, Кейси Рол, Дэвид Колл, Майкл Кэссиди

Описание: Квентин Колдуотер поступает в тайный университет, специализирующийся на магии. Вскоре он со своими юными друзьями узнаёт, что фэнтези мир, о котором все читали в детстве, более чем реален и представляет серьезную угрозу для человечества.

Рейтинг на: [imdb=http://www.imdb.com/title/tt4254242/]

Видео: 1920x1080 (16/9), 23,976 fps, AVC (х264), Main@L4.1, ~6940 kbps avg, 0.140 bit/pixel
Аудио #1 Rus: :48 kHz, AC3 Dolby Digital, 3/2 (L,C,R,l,r) + LFE ch, ~384 kbps
Аудио #1 Eng: :48 kHz, AC3 Dolby Digital, 3/2 (L,C,R,l,r) + LFE ch, ~384 kbps

Внимание, присутствует реклама!

Внимание! Раздача ведётся путём добавления новых серий

Внимание! Раздача ведётся путём добавления новых серий; при каждом добавлении создаётся новый торрент. Чтобы начать докачку новой серии, пользователям необходимо сделать следующее:
(1) остановить скачивание,
(2) удалить старый торрент у себя из клиента (старые серии удалять не надо),
(3) скачать новый торрент и запустить его у себя в клиенте вместо старого, при этом указать клиенту путь в старую папку куда и должно происходить скачивание новых серий.

Ваш клиент при этом должен произвести хеширование (проверку) старой папки (если не производит сам - помогите ему сделать это), и будет докачивать только те серии которых у вас ещё нет. Старые серии при этом не удаляются, а продолжают раздаваться!

Eсли вы уже удалили старые серии, то предотвратить повторную закачку старых серий можно, отжав галочку в соответствующих местах при запуске нового торрента. По возможности, желательно не удалять старые серии как можно дольше, чтобы релизёр не столько продолжал раздавать старые серии, а смог сконцентрироваться на новых.
MediaInfo

Общее
Уникальный идентификатор : 208923168636754396424027164142510046509 (0x9D2D237EEB3E0062ACEEB042F8107D2D)
Полное имя : I:IDEAFILMThe.Magicians.S03.WEBRip.1080pThe.Magicians.S03E01.WEBRip.1080p-IdeaFilm.mkv
Формат : Matroska
Версия формата : Version 4 / Version 2
Размер файла : 2,52 Гбайт
Продолжительность : 46 м. 51 с.
Общий поток : 7705 Кбит/сек
Дата кодирования : UTC 2018-01-12 14:50:40
Программа кодирования : mkvmerge v12.0.0 ('Trust / Lust') 64bit
Библиотека кодирования : libebml v1.3.4 + libmatroska v1.4.5

Видео
Идентификатор : 1
Формат : AVC
Формат/Информация : Advanced Video Codec
Профиль формата : Main@L4.1
Параметр CABAC формата : Да
Параметр ReFrames формата : 4 кадра
Идентификатор кодека : V_MPEG4/ISO/AVC
Продолжительность : 46 м. 51 с.
Битрейт : 6940 Кбит/сек
Ширина : 1920 пикселей
Высота : 1080 пикселей
Соотношение сторон : 16:9
Режим частоты кадров : Постоянный
Частота кадров : 23,976 (24000/1001) кадра/сек
Стандарт вещания : NTSC
Цветовое пространство : YUV
Субдискретизация насыщенности : 4:2:0
Битовая глубина : 8 бит
Тип развёртки : Прогрессивная
Бит/(Пиксели*Кадры) : 0.140
Размер потока : 2,27 Гбайт (90%)
Язык : English
Default : Да
Forced : Нет
Цветовой диапазон : Limited
Основные цвета : BT.709
Характеристики трансфера : BT.709
Коэффициенты матрицы : BT.709

Аудио #1
Идентификатор : 2
Формат : AC-3
Формат/Информация : Audio Coding 3
Расширение режима : CM (complete main)
Параметр Endianness формата : Big
Идентификатор кодека : A_AC3
Продолжительность : 46 м. 51 с.
Вид битрейта : Постоянный
Битрейт : 384 Кбит/сек
Каналы : 6 каналов
Расположение каналов : Front: L C R, Side: L R, LFE
Частота : 48,0 КГц
Частота кадров : 31,250 кадров/сек (1536 spf)
Метод сжатия : С потерями
Размер потока : 129 Мбайт (5%)
Заголовок : IdeaFilm
Язык : Russian
Default : Да
Forced : Нет

Аудио #2
Идентификатор : 3
Формат : AC-3
Формат/Информация : Audio Coding 3
Расширение режима : CM (complete main)
Параметр Endianness формата : Big
Идентификатор кодека : A_AC3
Продолжительность : 46 м. 11 с.
Вид битрейта : Постоянный
Битрейт : 384 Кбит/сек
Каналы : 6 каналов
Расположение каналов : Front: L C R, Side: L R, LFE
Частота : 48,0 КГц
Частота кадров : 31,250 кадров/сек (1536 spf)
Метод сжатия : С потерями
Задержка видео : 40 с. 0 мс.
Размер потока : 127 Мбайт (5%)
Язык : English
Default : Нет
Forced : Нет
Видео / Зарубежные сериалы / Разное
СКАЧАТЬ БЕСПЛАТНО  [2.5 GB]