22
фев
2014

Звездный путь: Оригинальный сериал, 1-3 сезоны 0-79 серии из 79 / Star Trek: The Original Series (1966)


Сезоны 1-3 Серии 0-79

Перевод: Профессиональный (Многоголосый, закадровый) Субтитры: Отсутствуют
Слоган: «Смело идти туда, где не ступала нога человека»
Формат: BDRip-AVC, MKV, H264, AC3
Страна: США | Paramount Television
Режиссер: Марк Дэниелс, Джозеф Пивни, Винсент МакЭвити
Жанр: фантастика, боевик, приключения
Всего серий: 80
Продолжительность: 80 х ~00:50:00
Год выпуска: 1966-1969

В ролях: Уильям Шетнер, Леонард Нимой, ДеФорест Келли, Нишелль Николс, Джордж Такей, Джеймс Дуэн, Уолтер Кениг, Эдди Паски, Маджел Бэррет, Джон УинстонОписание: Космос, последний рубеж. Это путешествия звездолета Энтерпрайз. Его 5-летняя миссия: исследовать новые миры, искать новые формы жизни и другие цивилизации. Это самый первый телесериал 'Star Trek', давший толчок всей эпопеи и прочно вошедший в американскую культуру. У нас насочиняли анекдотов про Штирлица, про Петьку и Василия Иваныча, про Шерлока Холмса. У них - про The Original Series. Пародии на него можно встретить во множестве американских фильмов и мультиков, они продолжают появляться до сих пор. Посмотреть этот сериал стоит хотя бы для того, чтобы понимать их..

Рейтинг:


Видео: 720x544 (1.32:1), 23.976 fps, AVC (x264), High@ L3.1 ~1875 kbps avg, 0.200 bit/pixel.
Аудио Rus: 48 kHz, AC3 Dolby Digital, 2/0 (L,R) ch, ~256 kbps.
Аудио Eng: 48 kHz, AC3 Dolby Digital, 3/2 (L,C,R,l,r) + LFE ch, ~448 kbps.

Доп. информация: В 2006 году, в честь 40-летия сериала, в студии Paramount взялись за ремастеринг. Кадры были отсканированы с оригинальной 35-мм пленки в высоком разрешении и почищены от шумов, все космические сцены были пересняты. Вступительную тему (space, the final frontier) записали по-новой.
Содержание
Список серий
MediaInfo
Формат : Matroska
Версия формата : Version 2
Размер файла : 938 Мбайт
Продолжительность : 50 м.
Общий поток : 2579 Кбит/сек
Дата кодирования : UTC 2012-02-11 10:55:48
Программа кодирования : mkvmerge v5.3.0 ('I could have danced') built on Feb 9 2012 10:38:07
Библиотека кодирования : libebml v1.2.3 + libmatroska v1.3.0

Видео
Идентификатор : 1
Формат : AVC
Формат/Информация : Advanced Video Codec
Профиль формата : High@L3.1
Параметр CABAC формата : Да
Параметр ReFrames формата : 8 кадров
Идентификатор кодека : V_MPEG4/ISO/AVC
Продолжительность : 50 м.
Битрейт : 1875 Кбит/сек
Ширина : 720 пикселей
Высота : 544 пикселя
Соотношение сторон : 4:3
Режим частоты кадров : Постоянный
Частота кадров : 23,976 кадра/сек
Цветовое пространство : YUV
Субдискретизация насыщенности : 4:2:0
Битовая глубина : 8 бит
Тип развёртки : Прогрессивная
Бит/(Пиксели*Кадры) : 0.200
Размер потока : 663 Мбайт (71%)
Библиотека кодирования : x264 core 120 r2164 da19765
Настройки программы : cabac=1 / ref=8 / deblock=1:-2:-2 / analyse=0x3:0x133 / me=umh / subme=11 / psy=1 / psy_rd=1.00:0.15 / mixed_ref=1 / me_range=24 / chroma_me=1 / trellis=2 / 8x8dct=1 / cqm=0 / deadzone=21,11 / fast_pskip=0 / chroma_qp_offset=-3 / threads=6 / sliced_threads=0 / nr=0 / decimate=0 / interlaced=0 / bluray_compat=0 / constrained_intra=0 / bframes=8 / b_pyramid=2 / b_adapt=2 / b_bias=0 / direct=3 / weightb=1 / open_gop=0 / weightp=2 / keyint=240 / keyint_min=23 / scenecut=40 / intra_refresh=0 / rc=2pass / mbtree=0 / bitrate=1875 / ratetol=1.0 / qcomp=0.60 / qpmin=0 / qpmax=69 / qpstep=4 / cplxblur=20.0 / qblur=0.5 / ip_ratio=1.40 / pb_ratio=1.30 / aq=1:0.80
Язык : English
Default : Да
Forced : Нет

Аудио #1
Идентификатор : 2
Формат : AC-3
Формат/Информация : Audio Coding 3
Профиль формата : Dolby Digital
Расширение режима : CM (complete main)
Параметр Endianness формата : Big
Идентификатор кодека : A_AC3
Продолжительность : 50 м.
Вид битрейта : Постоянный
Битрейт : 256 Кбит/сек
Каналы : 2 канала
Расположение каналов : Front: L R
Частота : 48,0 КГц
Битовая глубина : 16 бит
Метод сжатия : С потерями
Размер потока : 93,1 Мбайт (10%)
Язык : Russian
Default : Да
Forced : Нет

Аудио #2
Идентификатор : 3
Формат : AC-3
Формат/Информация : Audio Coding 3
Расширение режима : CM (complete main)
Параметр Endianness формата : Big
Идентификатор кодека : A_AC3
Продолжительность : 50 м.
Вид битрейта : Постоянный
Битрейт : 448 Кбит/сек
Каналы : 6 каналов
Расположение каналов : Front: L C R, Side: L R, LFE
Частота : 48,0 КГц
Битовая глубина : 16 бит
Метод сжатия : С потерями
Размер потока : 163 Мбайт (17%)
Язык : English
Default : Нет
Forced : Нет
Ссылки
Все раздачи
Видео / Зарубежные сериалы / Разное
СКАЧАТЬ БЕСПЛАТНО  [71.9 GB]

Похожие материалы