14
авг
2017

VA - Dance Classics - Gold Vol. 02 (1991)

Формат: FLAC, (tracks + .cue), lossless
Год выпуска: 1991
Страна: Holland
Жанр: Pop, Dance
Продолжительность: 02:17:36
Описание:

Cd 1 01
01.Celebration - Kool & The Gang (04:58)
02.Never Can Say Goodbye - Gloria Gaynor (03:01)
03.Don't Walk Away - The Four Tops (04:09)
04.The Night The Lights Went Out - The Trammps (03:22)
05.Are You Ready - Billy Ocean (03:42)
06.Boogie Nights - Heatwave (04:35)
07.If I Can't Have You - Yvonne Elliman (02:59)
08.The Best Disco In Town - Ritchie Family (06:39)
09.Loose Caboose - Joe Tex (06:49)
10.Standing In The Rain - John Paul Young (04:25)
11.Zodiac - Roberta Kelly (04:00)
12.From Here To Eternity - Giorgio Moroder (03:25)
13.Come To My Island - KC & The Sunshine Band (04:13)
14.It's Love Thing - The Whispers (03:44)
15.Say Oops Upside Your Head - The Gap Band (04:20)
16.Forget Me Nots - Patrice Rushen (04:05)

eac
Exact Audio Copy V1.0 beta 3 from 29. August 2011

EAC extraction logfile from 30. March 2012, 20:31

VA / Dance Classics - Gold Vol. 02 - Cd1

Used drive : DVD+RW RW5240 Adapter: 0 ID: 0

Read mode : Secure
Utilize accurate stream : Yes
Defeat audio cache : Yes
Make use of C2 pointers : No

Read offset correction : 91
Overread into Lead-In and Lead-Out : No
Fill up missing offset samples with silence : Yes
Delete leading and trailing silent blocks : No
Null samples used in CRC calculations : Yes
Used interface : Native Win32 interface for Win NT & 2000
Gap handling : Appended to previous track

Used output format : User Defined Encoder
Selected bitrate : 320 kBit/s
Quality : High
Add ID3 tag : No
Command line compressor : C:Program Files (x86)Exact Audio CopyFLACFLAC.EXE
Additional command line options : -V -8 -T "artist=%artist%" -T "title=%title%" -T "album=%albumtitle%" -T "date=%year%" -T "tracknumber=%tracknr%" -T "genre=%genre%" %source%

TOC of the extracted CD

Track | Start | Length | Start sector | End sector
---------------------------------------------------------
1 | 0:00.00 | 4:58.07 | 0 | 22356
2 | 4:58.07 | 3:00.45 | 22357 | 35901
3 | 7:58.52 | 4:08.40 | 35902 | 54541
4 | 12:07.17 | 3:21.50 | 54542 | 69666
5 | 15:28.67 | 3:42.00 | 69667 | 86316
6 | 19:10.67 | 4:34.60 | 86317 | 106926
7 | 23:45.52 | 2:58.40 | 106927 | 120316
8 | 26:44.17 | 6:38.40 | 120317 | 150206
9 | 33:22.57 | 6:48.70 | 150207 | 180876
10 | 40:11.52 | 4:24.63 | 180877 | 200739
11 | 44:36.40 | 3:59.60 | 200740 | 218724
12 | 48:36.25 | 3:24.72 | 218725 | 234096
13 | 52:01.22 | 4:13.05 | 234097 | 253076
14 | 56:14.27 | 3:43.63 | 253077 | 269864
15 | 59:58.15 | 4:20.22 | 269865 | 289386
16 | 64:18.37 | 4:05.35 | 289387 | 307796

Track 1

Filename D:DownloadsVA - Dance Classics - Gold Vol. 02 1991 FlacCd1
Музыка / Lossless / Сборники
СКАЧАТЬ БЕСПЛАТНО  [893.2 MB]