19
фев
2011

Michael Barclay - Blue Eyed Blues (1998)


Формат: FLAC, (tracks + .cue), lossless
Год выпуска: 1998
Страна: USA
Жанр: Blues, Guitar Blues
Продолжительность: 01:03:50
Описание:

Трэклист:

01. Give It to Me Straight 04:56
02. Drown in My Own Tears 04:09
03. Mama's Cadillac 04:14
04. Desperate Man 04:27
05. Orphan 03:52
06. A Diary of the Blues (All the Prayin' in the World) 03:25
07. Maintenance Man 03:03
08. Old Love 05:56
09. Stinky 02:53
10. My Pretty Angel 03:49
11. Shake It Loose 03:51
12. Nylons and Heels 03:20
13. Just Can't Quit the Blues 04:57
14. The Shoe Is on the Other Foot 04:12
15. NY Blues 03:17
16. Who's Stalkin' Who? 03:20

Доп. информация:


Exact Audio Copy V0.99 prebeta 5 from 4. May 2009

EAC extraction logfile from 28. May 2010, 14:08

Michael Barclay / Blue Eyed Blues

Used drive : PLEXTOR DVDR PX-716A Adapter: 1 ID: 0

Read mode : Burst

Read offset correction : 30
Overread into Lead-In and Lead-Out : No
Fill up missing offset samples with silence : Yes
Delete leading and trailing silent blocks : No
Null samples used in CRC calculations : No
Used interface : Native Win32 interface for Win NT & 2000
Gap handling : Appended to previous track

Used output format : Internal WAV Routines
Sample format : 44.100 Hz; 16 Bit; Stereo

TOC of the extracted CD

Track | Start | Length | Start sector | End sector
---------------------------------------------------------
1 | 0:00.00 | 4:56.05 | 0 | 22204
2 | 4:56.05 | 4:09.68 | 22205 | 40947
3 | 9:05.73 | 4:14.05 | 40948 | 60002
4 | 13:20.03 | 4:27.49 | 60003 | 80076
5 | 17:47.52 | 3:52.68 | 80077 | 97544
6 | 21:40.45 | 3:25.69 | 97545 | 112988
7 | 25:06.39 | 3:03.55 | 112989 | 126768
8 | 28:10.19 | 5:56.69 | 126769 | 153537
9 | 34:07.13 | 2:53.59 | 153538 | 166571
10 | 37:00.72 | 3:49.34 | 166572 | 183780
11 | 40:50.31 | 3:51.39 | 183781 | 201144
12 | 44:41.70 | 3:20.26 | 201145 | 216170
13 | 48:02.21 | 4:57.43 | 216171 | 238488
14 | 52:59.64 | 4:12.40 | 238489 | 257428
15 | 57:12.29 | 3:17.25 | 257429 | 272228
16 | 60:29.54 | 3:20.42 | 272229 | 287270

Track 1

Filename E:2 - New Rip'sMichael Barclay - Blue Eyed Blues
Музыка / Lossless / Разное
СКАЧАТЬ БЕСПЛАТНО  [427.2 MB]