13
сен
2019

Stray - On The Top Of The World (2CD) (2005)

Формат: FLAC, (tracks + .cue), lossless
Год выпуска: 2005
Страна: England
Жанр: Blues Rock, Psychedelic Rock, Prog Rock
Продолжительность: 02:05:21
Описание:
22001 10 01

01. The Rock (4:04)
02. Home (3:30)
03. On The Top Of The World (4:09)
04. The Dogs (4:23)
05. Earth (4:59)
06. The Greasy Pole (3:50)
07. Cross Country (5:20)
08. Sleepy Time Blues (5:06)
09. Lucky Man (8:25)
10. Georgia (2:25)
11. Alone Again (6:28 )
12. Years? (10:52)
eac
Exact Audio Copy V1.1 from 23. June 2015

EAC extraction logfile from 6. September 2019, 20:08

Stray / On The Top Of The World CD1

Used drive : HL-DT-STDVD-RAM GH22NP20 Adapter: 1 ID: 0

Read mode : Secure
Utilize accurate stream : Yes
Defeat audio cache : Yes
Make use of C2 pointers : No

Read offset correction : 102
Overread into Lead-In and Lead-Out : No
Fill up missing offset samples with silence : Yes
Delete leading and trailing silent blocks : No
Null samples used in CRC calculations : Yes
Used interface : Native Win32 interface for Win NT & 2000
Gap handling : Appended to previous track

Used output format : User Defined Encoder
Selected bitrate : 128 kBit/s
Quality : High
Add ID3 tag : No
Command line compressor : C:Program FilesExact Audio CopyFlacflac.exe
Additional command line options : -V -8 -T "Genre=%genre%" -T "Artist=%artist%" -T "Title=%title%" -T "Album=%albumtitle%" -T "Date=%year%" -T "Tracknumber=%tracknr%" -T "Comment=%comment%" %source%

TOC of the extracted CD

Track | Start | Length | Start sector | End sector
---------------------------------------------------------
1 | 0:00.00 | 4:04.03 | 0 | 18302
2 | 4:04.03 | 3:29.58 | 18303 | 34035
3 | 7:33.61 | 4:09.29 | 34036 | 52739
4 | 11:43.15 | 4:23.32 | 52740 | 72496
5 | 16:06.47 | 4:58.53 | 72497 | 94899
6 | 21:05.25 | 3:50.22 | 94900 | 112171
7 | 24:55.47 | 5:20.25 | 112172 | 136196
8 | 30:15.72 | 5:06.10 | 136197 | 159156
9 | 35:22.07 | 8:25.19 | 159157 | 197050
10 | 43:47.26 | 2:24.48 | 197051 | 207898
11 | 46:11.74 | 6:27.51 | 207899 | 236974
12 | 52:39.50 | 10:51.74 | 236975 | 285873

Track 1

Filename E:alexbras2005 Stray - On The Top Of The World (UK Ambitions 223138-311)CD1
Музыка / Lossless / Разное
СКАЧАТЬ БЕСПЛАТНО  [890.1 MB]