21

2015

The Pretty Things - Bouquets From A Cloudy Sky (13CD Box Set) (2015)


: FLAC, (image + .cue), lossless
: 2015
: UK
: Blues Rock, Psychedelic Rock, Pop Rock, Acid Rock
: 12:41:21
:
1965 The Pretty Things 00
The Pretty Things - Bouquets From A Cloudy Sky
01. Roadrunner
02. Judgement Day
03. 13 Chester Street
04. Big City
05. Unknown Blues
06. Mama, Keep Your Big Mouth Shut
07 Honey, I Need
08. Oh Baby Doll
09. She`s Fine Shes Mine
10. Dont Lie To Me
11. The Moon Is Rising
12. Pretty Thing
Bonus Tracks
13 Rosalyn
14. Big Boss Man
15. Dont Bring Me Down
16. Well Be Together
17. I Can Never Say
18. Get Yourself Home

eac
Exact Audio Copy V1.0 beta 4 from 7. December 2014

EAC extraction logfile from 15. March 2015, 11:49

The Pretty Things / The Pretty Things

Used drive : PLEXTOR BD-R PX-B950SA Adapter: 1 ID: 1

Read mode : Secure
Utilize accurate stream : Yes
Defeat audio cache : Yes
Make use of C2 pointers : No

Read offset correction : 6
Overread into Lead-In and Lead-Out : No
Fill up missing offset samples with silence : Yes
Delete leading and trailing silent blocks : No
Null samples used in CRC calculations : Yes
Used interface : Native Win32 interface for Win NT & 2000

Used output format : Internal WAV Routines
Sample format : 44.100 Hz; 16 Bit; Stereo

TOC of the extracted CD

Track | Start | Length | Start sector | End sector
---------------------------------------------------------
1 | 0:00.00 | 3:11.57 | 0 | 14381
2 | 3:11.57 | 2:46.40 | 14382 | 26871
3 | 5:58.22 | 2:22.33 | 26872 | 37554
4 | 8:20.55 | 2:01.48 | 37555 | 46677
5 | 10:22.28 | 3:48.09 | 46678 | 63786
6 | 14:10.37 | 3:04.28 | 63787 | 77614
7 | 17:14.65 | 1:59.53 | 77615 | 86592
8 | 19:14.43 | 3:01.33 | 86593 | 100200
9 | 22:16.01 | 4:24.05 | 100201 | 120005
10 | 26:40.06 | 3:53.14 | 120006 | 137494
11 | 30:33.20 | 2:33.10 | 137495 | 148979
12 | 33:06.30 | 1:38.22 | 148980 | 156351
13 | 34:44.52 | 2:20.43 | 156352 | 166894
14 | 37:05.20 | 2:38.60 | 166895 | 178804
15 | 39:44.05 | 2:10.29 | 178805 | 188583
16 | 41:54.34 | 2:10.60 | 188584 | 198393
17 | 44:05.19 | 2:36.32 | 198394 | 210125
18 | 46:41.51 | 2:14.70 | 210126 | 220245

Range status and errors

Selected range

Filename C:UsersMeijinDesktopLossless Galaxy ALLexxessThe Pretty Things2015 Bouquets From A Cloudy Sky (13CD + 2DVD Box Set Snapper Music)1965 The Pretty ThingsThe Pretty Things - The Pretty Things.wav

Peak level 92.2 %
Extraction speed 7.2 X
Range quality 100.0 %
Test CRC 6B209EE7
Copy CRC 6B209EE7
Copy OK

No errors occurred

AccurateRip summary

Track 1 not present in database
Track 2 not present in database
Track 3 not present in database
Track 4 not present in database
Track 5 not present in database
Track 6 not present in database
Track 7 not present in database
Track 8 not present in database
Track 9 not present in database
Track 10 not present in database
Track 11 not present in database
Track 12 not present in database
Track 13 not present in database
Track 14 not present in database
Track 15 not present in database
Track 16 not present in database
Track 17 not present in database
Track 18 not present in database

None of the tracks are present in the AccurateRip database

End of status report

---- CUETools DB Plugin V2.1.4

[CTDB TOCID: ouJ5JzPhY2GO0lt3ZfkjNjYHOnY-] disk not present in database
Submit result: ouJ5JzPhY2GO0lt3ZfkjNjYHOnY- has been uploaded

==== Log checksum D49CD5DCFC932E2EA941D3EDB645A134A546780AA1DEB04F96422C7E138DEFBE ====
1965 Get The Picture? 00
The Pretty Things - Bouquets From A Cloudy Sky
01. You Dont Believe Me
02. Buzz The Jerk
03. Get The Picture?
04. Cant Stand The Pain
05. Rainin In My Heart
06. Well Play House
07. You`ll Never Do It Baby
08. I Had A Dream
09. I Want Your Love
10. London Town
11. Cry To Me
12. Gonna Find Me A Substitute
Bonus Tracks
13. Get A Buzz
14. Sittin All Alone
15. Midnight To Six Man
16. Me Needing You
17. Come See Me
18. L. S. D.

eac
Exact Audio Copy V1.0 beta 4 from 7. December 2014

EAC extraction logfile from 15. March 2015, 11:27

The Pretty Things / Get The Picture?

Used drive : PLEXTOR BD-R PX-B950SA Adapter: 1 ID: 1

Read mode : Secure
Utilize accurate stream : Yes
Defeat audio cache : Yes
Make use of C2 pointers : No

Read offset correction : 6
Overread into Lead-In and Lead-Out : No
Fill up missing offset samples with silence : Yes
Delete leading and trailing silent blocks : No
Null samples used in CRC calculations : Yes
Used interface : Native Win32 interface for Win NT & 2000

Used output format : Internal WAV Routines
Sample format : 44.100 Hz; 16 Bit; Stereo

TOC of the extracted CD

Track | Start | Length | Start sector | End sector
---------------------------------------------------------
1 | 0:00.00 | 2:22.58 | 0 | 10707
2 | 2:22.58 | 1:54.19 | 10708 | 19276
3 | 4:17.02 | 1:55.64 | 19277 | 27965
4 | 6:12.66 | 2:41.15 | 27966 | 40055
5 | 8:54.06 | 2:30.31 | 40056 | 51336
6 | 11:24.37 | 2:33.17 | 51337 | 62828
7 | 13:57.54 | 2:26.26 | 62829 | 73804
8 | 16:24.05 | 2:58.60 | 73805 | 87214
9 | 19:22.65 | 2:16.36 | 87215 | 97450
10 | 21:39.26 | 2:26.48 | 97451 | 108448
11 | 24:05.74 | 2:51.07 | 108449 | 121280
12 | 26:57.06 | 2:57.74 | 121281 | 134629
13 | 29:55.05 | 4:01.17 | 134630 | 152721
14 | 33:56.22 | 2:47.48 | 152722 | 165294
15 | 36:43.70 | 2:19.14 | 165295 | 175733
16 | 39:03.09 | 1:58.12 | 175734 | 184595
17 | 41:01.21 | 2:38.71 | 184596 | 196516
18 | 43:40.17 | 2:24.33 | 196517 | 207349

Range status and errors

Selected range

Filename C:UsersMeijinDesktopLossless Galaxy ALLexxessThe Pretty Things2015 Bouquets From A Cloudy Sky (13CD + 2DVD Box Set Snapper Music)1965 Get The PictureThe Pretty Things - Get The Picture.wav

Peak level 90.4 %
Extraction speed 7.1 X
Range quality 100.0 %
Test CRC 07E5E540
Copy CRC 07E5E540
Copy OK

No errors occurred

AccurateRip summary

Track 1 not present in database
Track 2 not present in database
Track 3 not present in database
Track 4 not present in database
Track 5 not present in database
Track 6 not present in database
Track 7 not present in database
Track 8 not present in database
Track 9 not present in database
Track 10 not present in database
Track 11 not present in database
Track 12 not present in database
Track 13 not present in database
Track 14 not present in database
Track 15 not present in database
Track 16 not present in database
Track 17 not present in database
Track 18 not present in database

None of the tracks are present in the AccurateRip database

End of status report

---- CUETools DB Plugin V2.1.4

[CTDB TOCID: eC5rwjDIlesjfN5af5E3CRS640s-] disk not present in database
Submit result: eC5rwjDIlesjfN5af5E3CRS640s- has been uploaded

==== Log checksum 584CCF3A99B3BF6A1A584CD72B6B3E4FB9701770645489F7ED461C144CAE5AB3 ====
1967 Emotions 00
The Pretty Things - Bouquets From A Cloudy Sky
01.. Death Of A Socialite
02. Children
03. The Sun
04. There Will Never Be Another Day
05. House Of Ten
06. Out In The Night
07. One Long Glance
08. Growing In My Mind
09. Photographer
10. Bright Lights Of The City
11. Tripping
12 My Time
Bonus Tracks
13. A House In The Country
14. Progress
15. Photographer
16. There Will Never Be Another Day
17. My Time
18. The Sun
19. Progress

eac
Exact Audio Copy V1.0 beta 4 from 7. December 2014

EAC extraction logfile from 15. March 2015, 10:56

The Pretty Things / Emotions

Used drive : PLEXTOR BD-R PX-B950SA Adapter: 1 ID: 1

Read mode : Secure
Utilize accurate stream : Yes
Defeat audio cache : Yes
Make use of C2 pointers : No

Read offset correction : 6
Overread into Lead-In and Lead-Out : No
Fill up missing offset samples with silence : Yes
Delete leading and trailing silent blocks : No
Null samples used in CRC calculations : Yes
Used interface : Native Win32 interface for Win NT & 2000

Used output format : Internal WAV Routines
Sample format : 44.100 Hz; 16 Bit; Stereo

TOC of the extracted CD

Track | Start | Length | Start sector | End sector
---------------------------------------------------------
1 | 0:00.00 | 2:43.46 | 0 | 12270
2 | 2:43.46 | 3:05.33 | 12271 | 26178
3 | 5:49.04 | 3:06.12 | 26179 | 40140
4 | 8:55.16 | 2:22.55 | 40141 | 50845
5 | 11:17.71 | 2:54.29 | 50846 | 63924
6 | 14:12.25 | 2:44.02 | 63925 | 76226
7 | 16:56.27 | 2:54.26 | 76227 | 89302
8 | 19:50.53 | 2:21.56 | 89303 | 99933
9 | 22:12.34 | 2:07.14 | 99934 | 109472
10 | 24:19.48 | 3:02.10 | 109473 | 123132
11 | 27:21.58 | 3:26.71 | 123133 | 138653
12 | 30:48.54 | 3:09.21 | 138654 | 152849
13 | 33:58.00 | 3:00.67 | 152850 | 166416
14 | 36:58.67 | 2:42.01 | 166417 | 178567
15 | 39:40.68 | 2:14.51 | 178568 | 188668
16 | 41:55.44 | 2:25.41 | 188669 | 199584
17 | 44:21.10 | 3:10.54 | 199585 | 213888
18 | 47:31.64 | 3:09.37 | 213889 | 228100
19 | 50:41.26 | 2:55.73 | 228101 | 241298

Range status and errors

Selected range

Filename C:UsersMeijinDesktopLossless Galaxy ALLexxessThe Pretty Things2015 Bouquets From A Cloudy Sky (13CD + 2DVD Box Set Snapper Music)1967 EmotionsThe Pretty Things - Emotions.wav

Peak level 89.3 %
Extraction speed 7.5 X
Range quality 100.0 %
Test CRC B1A75CEC
Copy CRC B1A75CEC
Copy OK

No errors occurred

AccurateRip summary

Track 1 not present in database
Track 2 not present in database
Track 3 not present in database
Track 4 not present in database
Track 5 not present in database
Track 6 not present in database
Track 7 not present in database
Track 8 not present in database
Track 9 not present in database
Track 10 not present in database
Track 11 not present in database
Track 12 not present in database
Track 13 not present in database
Track 14 not present in database
Track 15 not present in database
Track 16 not present in database
Track 17 not present in database
Track 18 not present in database
Track 19 not present in database

None of the tracks are present in the AccurateRip database

End of status report

---- CUETools DB Plugin V2.1.4

[CTDB TOCID: a3EAm3r0gzejyanhX0XS2h1jQic-] disk not present in database
Submit result: a3EAm3r0gzejyanhX0XS2h1jQic- has been uploaded

==== Log checksum 091BC7E1611F6681625EAD1DEC61D95B41449B537934D92595C3C0A3AC076807 ====
1968 S.F.Sorrow 00
The Pretty Things - Bouquets From A Cloudy Sky
01. S.F. Sorrow Is Born
02. Bracelets Of Fingers
03. She Says Good Morning
04. Private Sorrow
05. Balloon Burning
06. Death
07. Baron Saturday
08. The Journey
09. I See You
10. Well Of Destiny
11. Trust
12. Old Man Going
13. Loneliest Person
Bonus Tracks
14. Defecting Grey
15. Mr. Evasion
16. Talkin About The Good Times
17. Walking Through My Dreams

eac
Exact Audio Copy V1.0 beta 4 from 7. December 2014

EAC extraction logfile from 15. March 2015, 10:01

The Pretty Things / S.F. Sorrow

Used drive : PLEXTOR BD-R PX-B950SA Adapter: 1 ID: 1

Read mode : Secure
Utilize accurate stream : Yes
Defeat audio cache : Yes
Make use of C2 pointers : No

Read offset correction : 6
Overread into Lead-In and Lead-Out : No
Fill up missing offset samples with silence : Yes
Delete leading and trailing silent blocks : No
Null samples used in CRC calculations : Yes
Used interface : Native Win32 interface for Win NT & 2000

Used output format : Internal WAV Routines
Sample format : 44.100 Hz; 16 Bit; Stereo

TOC of the extracted CD

Track | Start | Length | Start sector | End sector
---------------------------------------------------------
1 | 0:00.00 | 3:12.01 | 0 | 14400
2 | 3:12.01 | 3:41.48 | 14401 | 31023
3 | 6:53.49 | 3:23.11 | 31024 | 46259
4 | 10:16.60 | 3:51.04 | 46260 | 63588
5 | 14:07.64 | 3:51.29 | 63589 | 80942
6 | 17:59.18 | 3:05.30 | 80943 | 94847
7 | 21:04.48 | 4:01.35 | 94848 | 112957
8 | 25:06.08 | 2:45.69 | 112958 | 125401
9 | 27:52.02 | 3:56.31 | 125402 | 143132
10 | 31:48.33 | 1:46.65 | 143133 | 151147
11 | 33:35.23 | 2:49.70 | 151148 | 163892
12 | 36:25.18 | 3:09.39 | 163893 | 178106
13 | 39:34.57 | 1:30.16 | 178107 | 184872
14 | 41:04.73 | 4:31.06 | 184873 | 205203
15 | 45:36.04 | 3:30.53 | 205204 | 221006
16 | 49:06.57 | 3:46.15 | 221007 | 237971
17 | 52:52.72 | 3:36.70 | 237972 | 254241

Range status and errors

Selected range

Filename C:UsersMeijinDesktopLossless Galaxy ALLexxessThe Pretty Things2015 Bouquets From A Cloudy Sky (13CD + 2DVD Box Set Snapper Music)1967 S.F.SorrowThe Pretty Things - S.F. Sorrow.wav

Peak level 92.2 %
Extraction speed 7.6 X
Range quality 100.0 %
Test CRC 4E679024
Copy CRC 4E679024
Copy OK

No errors occurred

AccurateRip summary

Track 1 not present in database
Track 2 not present in database
Track 3 not present in database
Track 4 not present in database
Track 5 not present in database
Track 6 not present in database
Track 7 not present in database
Track 8 not present in database
Track 9 not present in database
Track 10 not present in database
Track 11 not present in database
Track 12 not present in database
Track 13 not present in database
Track 14 not present in database
Track 15 not present in database
Track 16 not present in database
Track 17 not present in database

None of the tracks are present in the AccurateRip database

End of status report

---- CUETools DB Plugin V2.1.4

[CTDB TOCID: suG0Im4_F9FyAZNuYDpgV0Bz5_Q-] disk not present in database
Submit result: suG0Im4_F9FyAZNuYDpgV0Bz5_Q- has been uploaded

==== Log checksum A0DDD12E3B09F34C424B62D22E0E36A4E3FFD6A404EFB9B0A566E3926CDE7109 ====
1970 Parachute 01
The Pretty Things - Bouquets From A Cloudy Sky
01. Scene One
02. The Good Mr. Square
03. She Was Tall, She Was High
04. In The Square
05. The Letter
06. Rain
07. Miss Fay Regrets
08. Cries From The Midnight Circus
09. Grass
10. Sickle Clowns
11. She`s A Lover
12. What`s The Use
13. Parachute
Bonus Tracks
14. Blue Serge Blues
15. October 26
16. Cold Stone
17. Stone-Hearted Mama
18. Summer Time
19. Circus Mind

eac
Exact Audio Copy V1.0 beta 4 from 7. December 2014

EAC extraction logfile from 14. March 2015, 19:14

The Pretty Things / Parachute

Used drive : PLEXTOR BD-R PX-B950SA Adapter: 1 ID: 1

Read mode : Secure
Utilize accurate stream : Yes
Defeat audio cache : Yes
Make use of C2 pointers : No

Read offset correction : 6
Overread into Lead-In and Lead-Out : No
Fill up missing offset samples with silence : Yes
Delete leading and trailing silent blocks : No
Null samples used in CRC calculations : Yes
Used interface : Native Win32 interface for Win NT & 2000

Used output format : Internal WAV Routines
Sample format : 44.100 Hz; 16 Bit; Stereo

TOC of the extracted CD

Track | Start | Length | Start sector | End sector
---------------------------------------------------------
1 | 0:00.00 | 1:49.63 | 0 | 8237
2 | 1:49.63 | 1:26.52 | 8238 | 14739
3 | 3:16.40 | 1:35.72 | 14740 | 21936
4 | 4:52.37 | 1:54.68 | 21937 | 30554
5 | 6:47.30 | 1:38.53 | 30555 | 37957
6 | 8:26.08 | 2:28.67 | 37958 | 49124
7 | 10:55.00 | 3:27.73 | 49125 | 64722
8 | 14:22.73 | 6:28.18 | 64723 | 93840
9 | 20:51.16 | 4:20.13 | 93841 | 113353
10 | 25:11.29 | 6:36.12 | 113354 | 143065
11 | 31:47.41 | 3:32.03 | 143066 | 158968
12 | 35:19.44 | 1:45.35 | 158969 | 166878
13 | 37:05.04 | 3:52.01 | 166879 | 184279
14 | 40:57.05 | 3:54.61 | 184280 | 201890
15 | 44:51.66 | 4:56.60 | 201891 | 224150
16 | 49:48.51 | 3:12.01 | 224151 | 238551
17 | 53:00.52 | 3:29.01 | 238552 | 254227
18 | 56:29.53 | 4:28.59 | 254228 | 274386
19 | 60:58.37 | 1:59.73 | 274387 | 283384

Range status and errors

Selected range

Filename C:UsersMeijinDesktopLossless Galaxy ALLexxessThe Pretty Things2015 Bouquets From A Cloudy Sky (13CD + 2DVD Box Set Snapper Music)1970 ParachuteThe Pretty Things - Parachute.wav

Peak level 86.8 %
Extraction speed 7.7 X
Range quality 100.0 %
Test CRC DBD186FD
Copy CRC DBD186FD
Copy OK

No errors occurred

AccurateRip summary

Track 1 not present in database
Track 2 not present in database
Track 3 not present in database
Track 4 not present in database
Track 5 not present in database
Track 6 not present in database
Track 7 not present in database
Track 8 not present in database
Track 9 not present in database
Track 10 not present in database
Track 11 not present in database
Track 12 not present in database
Track 13 not present in database
Track 14 not present in database
Track 15 not present in database
Track 16 not present in database
Track 17 not present in database
Track 18 not present in database
Track 19 not present in database

None of the tracks are present in the AccurateRip database

End of status report

---- CUETools DB Plugin V2.1.4

[CTDB TOCID: jEXdypx3y4YxR6T8fwbHYGEfdaU-] disk not present in database
Submit result: jEXdypx3y4YxR6T8fwbHYGEfdaU- has been uploaded

==== Log checksum F51918A88DD75E37D379393525490E6D26D192F962F08BDE93C02C41FD14BEC9 ====
1970 Freeway Madness 01
The Pretty Things - Bouquets From A Cloudy Sky
01.. Love Is Good
02. Havana Bound
03. Peter
04. Rip Off Train
05. Over The Moon
06. Religions Dead
07. Country Road
08. Allnight Sailor
09. Onion Soup
10. Another Bowl?
Bonus Tracks / Live Lyceum 1973
11. Religions Dead
12. Havana Bound
13. Love Is Good
14. Onion Soup

eac
Exact Audio Copy V1.0 beta 4 from 7. December 2014

EAC extraction logfile from 14. March 2015, 18:48

The Pretty Things / Freeway Madness

Used drive : PLEXTOR BD-R PX-B950SA Adapter: 1 ID: 1

Read mode : Secure
Utilize accurate stream : Yes
Defeat audio cache : Yes
Make use of C2 pointers : No

Read offset correction : 6
Overread into Lead-In and Lead-Out : No
Fill up missing offset samples with silence : Yes
Delete leading and trailing silent blocks : No
Null samples used in CRC calculations : Yes
Used interface : Native Win32 interface for Win NT & 2000

Used output format : Internal WAV Routines
Sample format : 44.100 Hz; 16 Bit; Stereo

TOC of the extracted CD

Track | Start | Length | Start sector | End sector
---------------------------------------------------------
1 | 0:00.00 | 6:53.63 | 0 | 31037
2 | 6:53.63 | 3:56.57 | 31038 | 48794
3 | 10:50.45 | 1:26.48 | 48795 | 55292
4 | 12:17.18 | 3:19.09 | 55293 | 70226
5 | 15:36.27 | 4:31.45 | 70227 | 90596
6 | 20:07.72 | 4:13.15 | 90597 | 109586
7 | 24:21.12 | 4:48.65 | 109587 | 131251
8 | 29:10.02 | 1:55.34 | 131252 | 139910
9 | 31:05.36 | 3:48.65 | 139911 | 157075
10 | 34:54.26 | 2:55.18 | 157076 | 170218
11 | 37:49.44 | 4:47.21 | 170219 | 191764
12 | 42:36.65 | 4:20.05 | 191765 | 211269
13 | 46:56.70 | 6:43.43 | 211270 | 241537
14 | 53:40.38 | 8:18.57 | 241538 | 278944

Range status and errors

Selected range

Filename C:UsersMeijinDesktopLossless Galaxy ALLexxessThe Pretty Things2015 Bouquets From A Cloudy Sky (13CD + 2DVD Box Set Snapper Music)1970 Freeway MadnessThe Pretty Things - Freeway Madness.wav

Peak level 92.2 %
Extraction speed 7.7 X
Range quality 100.0 %
Test CRC 65E98F47
Copy CRC 65E98F47
Copy OK

No errors occurred

AccurateRip summary

Track 1 not present in database
Track 2 not present in database
Track 3 not present in database
Track 4 not present in database
Track 5 not present in database
Track 6 not present in database
Track 7 not present in database
Track 8 not present in database
Track 9 not present in database
Track 10 not present in database
Track 11 not present in database
Track 12 not present in database
Track 13 not present in database
Track 14 not present in database

None of the tracks are present in the AccurateRip database

End of status report

---- CUETools DB Plugin V2.1.4

[CTDB TOCID: 6Zlshse0MKZitAWHP7Spl.iM2Js-] disk not present in database
Submit result: 6Zlshse0MKZitAWHP7Spl.iM2Js- has been uploaded

==== Log checksum 9B1DAA38CCACF939316C5F1F40BC7FA06CC0678C4C9B7AF3A0183A08ADF201DC ====
1974 Silk Torpedo 00
The Pretty Things - Bouquets From A Cloudy Sky
01. Dream / Joey
02. Maybe You Tried
03. Atlanta
04. L. A. N. T. A.
05. Is It Only Love
06. Come Home Momma
07. Bridge Of God
08. Singapore Silk Torpedo
09. Belfast Cowboys
Bonus Tracks
10. Singapore Silk Torpedo (Live Santa Monica 1974)
11. Dream / Joey (Live Santa Monica 1974)

eac
Exact Audio Copy V1.0 beta 4 from 7. December 2014

EAC extraction logfile from 14. March 2015, 11:36

The Pretty Things / Silk Torpedo

Used drive : PLEXTOR BD-R PX-B950SA Adapter: 1 ID: 1

Read mode : Secure
Utilize accurate stream : Yes
Defeat audio cache : Yes
Make use of C2 pointers : No

Read offset correction : 6
Overread into Lead-In and Lead-Out : No
Fill up missing offset samples with silence : Yes
Delete leading and trailing silent blocks : No
Null samples used in CRC calculations : Yes
Used interface : Native Win32 interface for Win NT & 2000

Used output format : Internal WAV Routines
Sample format : 44.100 Hz; 16 Bit; Stereo

TOC of the extracted CD

Track | Start | Length | Start sector | End sector
---------------------------------------------------------
1 | 0:00.00 | 6:51.01 | 0 | 30825
2 | 6:51.01 | 4:23.09 | 30826 | 50559
3 | 11:14.10 | 2:40.67 | 50560 | 62626
4 | 13:55.02 | 2:27.32 | 62627 | 73683
5 | 16:22.34 | 5:09.33 | 73684 | 96891
6 | 21:31.67 | 3:43.10 | 96892 | 113626
7 | 25:15.02 | 4:59.32 | 113627 | 136083
8 | 30:14.34 | 5:12.36 | 136084 | 159519
9 | 35:26.70 | 6:57.72 | 159520 | 190866
10 | 42:24.67 | 7:06.60 | 190867 | 222876
11 | 49:31.52 | 7:21.03 | 222877 | 255954

Range status and errors

Selected range

Filename C:UsersMeijinDesktopLossless Galaxy ALLexxessThe Pretty Things2015 Bouquets From A Cloudy Sky (13CD + 2DVD Box Set Snapper Music)1974 Silk TorpedoThe Pretty Things - Silk Torpedo.wav

Peak level 92.2 %
Extraction speed 7.6 X
Range quality 100.0 %
Test CRC 0EA937D5
Copy CRC 0EA937D5
Copy OK

No errors occurred

AccurateRip summary

Track 1 not present in database
Track 2 not present in database
Track 3 not present in database
Track 4 not present in database
Track 5 not present in database
Track 6 not present in database
Track 7 not present in database
Track 8 not present in database
Track 9 not present in database
Track 10 not present in database
Track 11 not present in database

None of the tracks are present in the AccurateRip database

End of status report

---- CUETools DB Plugin V2.1.4

[CTDB TOCID: OaQKj_sX9y7Erw1RVgdv9Up4AC4-] disk not present in database
Submit result: OaQKj_sX9y7Erw1RVgdv9Up4AC4- has been uploaded

==== Log checksum 47389C6D5F7F50EC40E47F16EC15C474EFC4C5ADAD046F7D6757A7104D72DBAD ====
1976 Savage Eye 00
The Pretty Things - Bouquets From A Cloudy Sky
01. Under The Volcano
02. My Song
03. Sad Eye
04. Remember That Boy
05. It Isnt Rock N Roll
06. Im Keeping
07. Its Been So Long
08. Drowned Man
09. Theme For Michelle
Bonus Tracks
10. Tonight
11. Love Me A Little
12. Dance All Night

eac
Exact Audio Copy V1.0 beta 4 from 7. December 2014

EAC extraction logfile from 14. March 2015, 10:55

The Pretty Things / Savage Eye

Used drive : PLEXTOR BD-R PX-B950SA Adapter: 1 ID: 1

Read mode : Secure
Utilize accurate stream : Yes
Defeat audio cache : Yes
Make use of C2 pointers : No

Read offset correction : 6
Overread into Lead-In and Lead-Out : No
Fill up missing offset samples with silence : Yes
Delete leading and trailing silent blocks : No
Null samples used in CRC calculations : Yes
Used interface : Native Win32 interface for Win NT & 2000

Used output format : Internal WAV Routines
Sample format : 44.100 Hz; 16 Bit; Stereo

TOC of the extracted CD

Track | Start | Length | Start sector | End sector
---------------------------------------------------------
1 | 0:00.00 | 6:01.07 | 0 | 27081
2 | 6:01.07 | 5:09.07 | 27082 | 50263
3 | 11:10.14 | 4:31.08 | 50264 | 70596
4 | 15:41.22 | 5:05.07 | 70597 | 93478
5 | 20:46.29 | 3:58.03 | 93479 | 111331
6 | 24:44.32 | 4:00.55 | 111332 | 129386
7 | 28:45.12 | 5:07.01 | 129387 | 152412
8 | 33:52.13 | 4:23.49 | 152413 | 172186
9 | 38:15.62 | 1:50.32 | 172187 | 180468
10 | 40:06.19 | 3:09.00 | 180469 | 194643
11 | 43:15.19 | 3:13.46 | 194644 | 209164
12 | 46:28.65 | 2:53.40 | 209165 | 222179

Range status and errors

Selected range

Filename C:UsersMeijinDesktopLossless Galaxy ALLexxessThe Pretty Things2015 Bouquets From A Cloudy Sky (13CD + 2DVD Box Set Snapper Music)1976 Savage EyeThe Pretty Things - Savage Eye.wav

Peak level 90.1 %
Extraction speed 7.2 X
Range quality 99.9 %
Test CRC A7D2C229
Copy CRC A7D2C229
Copy OK

No errors occurred

AccurateRip summary

Track 1 not present in database
Track 2 not present in database
Track 3 not present in database
Track 4 not present in database
Track 5 not present in database
Track 6 not present in database
Track 7 not present in database
Track 8 not present in database
Track 9 not present in database
Track 10 not present in database
Track 11 not present in database
Track 12 not present in database

None of the tracks are present in the AccurateRip database

End of status report

---- CUETools DB Plugin V2.1.4

[CTDB TOCID: laVJU91FoCBdpwV1mzRjBsp9au0-] disk not present in database
Submit result: laVJU91FoCBdpwV1mzRjBsp9au0- has been uploaded

==== Log checksum 60B794B18BFB2D959208C464999261C900781145A6DF5B3D2FD295921BF3138E ====
1980 Cross Talk 00
The Pretty Things - Bouquets From A Cloudy Sky
01. Im Calling
02. Edge Of The Night
03. Sea Of Blue
04. Lost That Girl
05. Bitter End
06. Office Love
07. Falling Again
08. Its So Hard
09. She Dont
10. No Future
11. Wish Fulfillment
12. Sea About Me
13 The Young Pretenders

eac
Exact Audio Copy V1.0 beta 4 from 7. December 2014

EAC extraction logfile from 14. March 2015, 10:22

The Pretty Things / Cross Talk

Used drive : PLEXTOR BD-R PX-B950SA Adapter: 1 ID: 1

Read mode : Secure
Utilize accurate stream : Yes
Defeat audio cache : Yes
Make use of C2 pointers : No

Read offset correction : 6
Overread into Lead-In and Lead-Out : No
Fill up missing offset samples with silence : Yes
Delete leading and trailing silent blocks : No
Null samples used in CRC calculations : Yes
Used interface : Native Win32 interface for Win NT & 2000

Used output format : Internal WAV Routines
Sample format : 44.100 Hz; 16 Bit; Stereo

TOC of the extracted CD

Track | Start | Length | Start sector | End sector
---------------------------------------------------------
1 | 0:00.00 | 4:05.69 | 0 | 18443
2 | 4:05.69 | 3:19.52 | 18444 | 33420
3 | 7:25.46 | 3:13.70 | 33421 | 47965
4 | 10:39.41 | 2:50.11 | 47966 | 60726
5 | 13:29.52 | 3:16.38 | 60727 | 75464
6 | 16:46.15 | 4:12.25 | 75465 | 94389
7 | 20:58.40 | 3:20.36 | 94390 | 109425
8 | 24:19.01 | 3:14.56 | 109426 | 124031
9 | 27:33.57 | 4:08.26 | 124032 | 142657
10 | 31:42.08 | 4:28.37 | 142658 | 162794
11 | 36:10.45 | 3:05.41 | 162795 | 176710
12 | 39:16.11 | 3:22.42 | 176711 | 191902
13 | 42:38.53 | 4:05.34 | 191903 | 210311

Range status and errors

Selected range

Filename C:UsersMeijinDesktopLossless Galaxy ALLexxessThe Pretty Things2015 Bouquets From A Cloudy Sky (13CD + 2DVD Box Set Snapper Music)1980 Cross TalkThe Pretty Things - Cross Talk.wav

Peak level 92.2 %
Extraction speed 7.2 X
Range quality 100.0 %
Test CRC 0E829F20
Copy CRC 0E829F20
Copy OK

No errors occurred

AccurateRip summary

Track 1 not present in database
Track 2 not present in database
Track 3 not present in database
Track 4 not present in database
Track 5 not present in database
Track 6 not present in database
Track 7 not present in database
Track 8 not present in database
Track 9 not present in database
Track 10 not present in database
Track 11 not present in database
Track 12 not present in database
Track 13 not present in database

None of the tracks are present in the AccurateRip database

End of status report

---- CUETools DB Plugin V2.1.4

[CTDB TOCID: oXccCvxFXkhajgOwmm13HXgCLvw-] disk not present in database
Submit result: oXccCvxFXkhajgOwmm13HXgCLvw- has been uploaded

==== Log checksum AD716FD60DA2581C1BDF67D04B58B7AEA4EC5FC8D52242EA6D5422DA3A64555D ====
1999 ...Rage Before Beauty 01
The Pretty Things - Bouquets From A Cloudy Sky
01. Passion Of Love
02. Vivian Prince
03. Everlasting Flame
04. Love Keeps Hanging On
05. Eve Of Destruction
06. Not Givin In
07. Pure Cold Stone
08. Blue Turns To Red
09. Goodbye, Goodbye
10. Goin Downhill
11. Play With Fire
12. Fly Away
13. Mony Mony
14. God Give Me The Strength (To Carry On)

eac
Exact Audio Copy V1.0 beta 4 from 7. December 2014

EAC extraction logfile from 14. March 2015, 9:57

The Pretty Things / Rage Before Beauty

Used drive : PLEXTOR BD-R PX-B950SA Adapter: 1 ID: 1

Read mode : Secure
Utilize accurate stream : Yes
Defeat audio cache : Yes
Make use of C2 pointers : No

Read offset correction : 6
Overread into Lead-In and Lead-Out : No
Fill up missing offset samples with silence : Yes
Delete leading and trailing silent blocks : No
Null samples used in CRC calculations : Yes
Used interface : Native Win32 interface for Win NT & 2000

Used output format : Internal WAV Routines
Sample format : 44.100 Hz; 16 Bit; Stereo

TOC of the extracted CD

Track | Start | Length | Start sector | End sector
---------------------------------------------------------
1 | 0:00.00 | 3:21.56 | 0 | 15130
2 | 3:21.56 | 5:15.20 | 15131 | 38775
3 | 8:37.01 | 3:46.40 | 38776 | 55765
4 | 12:23.41 | 8:55.03 | 55766 | 95893
5 | 21:18.44 | 3:02.74 | 95894 | 109617
6 | 24:21.43 | 4:01.38 | 109618 | 127730
7 | 28:23.06 | 5:46.50 | 127731 | 153730
8 | 34:09.56 | 4:00.65 | 153731 | 171795
9 | 38:10.46 | 2:45.22 | 171796 | 184192
10 | 40:55.68 | 4:11.69 | 184193 | 203086
11 | 45:07.62 | 4:07.31 | 203087 | 221642
12 | 49:15.18 | 4:30.33 | 221643 | 241925
13 | 53:45.51 | 4:44.45 | 241926 | 263270
14 | 58:30.21 | 6:02.19 | 263271 | 290439

Range status and errors

Selected range

Filename C:UsersMeijinDesktopLossless Galaxy ALLexxessThe Pretty Things2015 Bouquets From A Cloudy Sky (13CD + 2DVD Box Set Snapper Music)1999 Rage Before BeautyThe Pretty Things - Rage Before Beauty.wav

Peak level 92.2 %
Extraction speed 7.8 X
Range quality 100.0 %
Test CRC FB13B810
Copy CRC FB13B810
Copy OK

No errors occurred

AccurateRip summary

Track 1 not present in database
Track 2 not present in database
Track 3 not present in database
Track 4 not present in database
Track 5 not present in database
Track 6 not present in database
Track 7 not present in database
Track 8 not present in database
Track 9 not present in database
Track 10 not present in database
Track 11 not present in database
Track 12 not present in database
Track 13 not present in database
Track 14 not present in database

None of the tracks are present in the AccurateRip database

End of status report

---- CUETools DB Plugin V2.1.4

[CTDB TOCID: cIAfJHAWPZO50mTTDj3.HCeHZWI-] disk not present in database
Submit result: cIAfJHAWPZO50mTTDj3.HCeHZWI- has been uploaded

==== Log checksum 2904BA0021818F9793CD186455BC52E6F6EDC825E43D897D4FC6B4992A87AB9B ====
2007 Balboa Island 00
The Pretty Things - Bouquets From A Cloudy Sky
01. The Beat Goes On
02. Buried Alive
03. Livin In My Skin
04. (Blues For) Robert Johnson
05. Pretty Beat
06. In The Beginning
07. Mimi
08. Feel Like Goin Home
09. The Ballad Of Hollis Brown
10. Freedom Song
11. Dearly Beloved
12. All Light Up
13. Balboa Island

eac
Exact Audio Copy V1.0 beta 4 from 7. December 2014

EAC extraction logfile from 14. March 2015, 9:33

The Pretty Things / Balboa Island

Used drive : PLEXTOR BD-R PX-B950SA Adapter: 1 ID: 1

Read mode : Secure
Utilize accurate stream : Yes
Defeat audio cache : Yes
Make use of C2 pointers : No

Read offset correction : 6
Overread into Lead-In and Lead-Out : No
Fill up missing offset samples with silence : Yes
Delete leading and trailing silent blocks : No
Null samples used in CRC calculations : Yes
Used interface : Native Win32 interface for Win NT & 2000

Used output format : Internal WAV Routines
Sample format : 44.100 Hz; 16 Bit; Stereo

TOC of the extracted CD

Track | Start | Length | Start sector | End sector
---------------------------------------------------------
1 | 0:00.00 | 4:13.37 | 0 | 19011
2 | 4:13.37 | 3:34.66 | 19012 | 35127
3 | 7:48.28 | 3:59.27 | 35128 | 53079
4 | 11:47.55 | 8:00.53 | 53080 | 89132
5 | 19:48.33 | 2:51.68 | 89133 | 102025
6 | 22:40.26 | 4:41.50 | 102026 | 123150
7 | 27:22.01 | 2:34.31 | 123151 | 134731
8 | 29:56.32 | 2:42.56 | 134732 | 146937
9 | 32:39.13 | 6:27.73 | 146938 | 176035
10 | 39:07.11 | 4:45.47 | 176036 | 197457
11 | 43:52.58 | 4:59.19 | 197458 | 219901
12 | 48:52.02 | 4:29.46 | 219902 | 240122
13 | 53:21.48 | 4:40.21 | 240123 | 261143

Range status and errors

Selected range

Filename C:UsersMeijinDesktopLossless Galaxy ALLexxessThe Pretty Things2015 Bouquets From A Cloudy Sky (13CD + 2DVD Box Set Snapper Music)2007 Balboa IslandThe Pretty Things - Balboa Island.wav

Peak level 91.2 %
Extraction speed 7.6 X
Range quality 100.0 %
Test CRC FB59B7D8
Copy CRC FB59B7D8
Copy OK

No errors occurred

AccurateRip summary

Track 1 not present in database
Track 2 not present in database
Track 3 not present in database
Track 4 not present in database
Track 5 not present in database
Track 6 not present in database
Track 7 not present in database
Track 8 not present in database
Track 9 not present in database
Track 10 not present in database
Track 11 not present in database
Track 12 not present in database
Track 13 not present in database

None of the tracks are present in the AccurateRip database

End of status report

---- CUETools DB Plugin V2.1.4

[CTDB TOCID: 173WNK8UALHrSfdbCXs50dULTlI-] disk not present in database
Submit result: 173WNK8UALHrSfdbCXs50dULTlI- has been uploaded

==== Log checksum 1015BC413A7332934B7407D7138A0659594F574E05423BDC9AB626EC28E6E25F ====
2014 Rarities 1 01
The Pretty Things - Bouquets From A Cloudy Sky
01 Dont Bring Me Down (Live On The Beat Room 1964)
02. Mama Keep Your Big Mouth Shut (Live On The Beat Room 1964)
03. Johnny B. Goode (Live On The Beat Room 1964)
04. Cry To Me (Alternate Version)
05. Photographer (Rough Mix From Acetate)
06. Bright Lights Of The City (Demo)
07. Out In The Night (Demo)
08. One Long Glance (Demo)
09. Children (Alternate Version)
10. Defecting Grey (Alternate Mix)
11. Why (Live In Hyde Park)
12. She Says Good Morning (Live At The Paradiso, Amsterdam)
13. Alexander (Live At The Paradiso, Amsterdam)
14. Renaissance Fair (Live At The Paradiso, Amsterdam)
15. S.F. Sorrow Is Born (Live At The Paradiso, Amsterdam)
16. You Might Even Say (Philippe Debarge Sessions)
17. Eagles Son (Philippe Debarge Sessions)
18. Graves Of Grey (Philippe Debarge Sessions)
19. It`ll Never Be (Philippe Debarge Sessions)
20. Scene One (Westbourne Terrace Demo)
21. The Good Mr. Square (Westbourne Terrace Demo)
22. She Was Tall, She Was High (Westbourne Terrace Demo)
23. In The Square / The Letter (Westbourne Terrace Demo)
24. Rain (Westbourbe Terrace Demo)
25. Cries From The Midnight Circus (Westbourne Terrace Demo)

eac
Exact Audio Copy V1.0 beta 4 from 7. December 2014

EAC extraction logfile from 13. March 2015, 23:05

The Pretty Things / Rarities CD1

Used drive : PLEXTOR BD-R PX-B950SA Adapter: 1 ID: 1

Read mode : Secure
Utilize accurate stream : Yes
Defeat audio cache : Yes
Make use of C2 pointers : No

Read offset correction : 6
Overread into Lead-In and Lead-Out : No
Fill up missing offset samples with silence : Yes
Delete leading and trailing silent blocks : No
Null samples used in CRC calculations : Yes
Used interface : Native Win32 interface for Win NT & 2000

Used output format : Internal WAV Routines
Sample format : 44.100 Hz; 16 Bit; Stereo

TOC of the extracted CD

Track | Start | Length | Start sector | End sector
---------------------------------------------------------
1 | 0:00.00 | 2:15.73 | 0 | 10197
2 | 2:15.73 | 3:25.70 | 10198 | 25642
3 | 5:41.68 | 1:42.27 | 25643 | 33319
4 | 7:24.20 | 2:43.05 | 33320 | 45549
5 | 10:07.25 | 2:11.68 | 45550 | 55442
6 | 12:19.18 | 2:59.01 | 55443 | 68868
7 | 15:18.19 | 2:39.09 | 68869 | 80802
8 | 17:57.28 | 2:54.33 | 80803 | 93885
9 | 20:51.61 | 3:01.25 | 93886 | 107485
10 | 23:53.11 | 3:11.21 | 107486 | 121831
11 | 27:04.32 | 6:16.06 | 121832 | 150037
12 | 33:20.38 | 3:41.54 | 150038 | 166666
13 | 37:02.17 | 3:28.38 | 166667 | 182304
14 | 40:30.55 | 2:12.64 | 182305 | 192268
15 | 42:43.44 | 3:33.35 | 192269 | 208278
16 | 46:17.04 | 3:59.63 | 208279 | 226266
17 | 50:16.67 | 2:59.46 | 226267 | 239737
18 | 53:16.38 | 0:49.36 | 239738 | 243448
19 | 54:05.74 | 4:33.04 | 243449 | 263927
20 | 58:39.03 | 1:14.14 | 263928 | 269491
21 | 59:53.17 | 4:33.56 | 269492 | 290022
22 | 64:26.73 | 0:55.74 | 290023 | 294221
23 | 65:22.72 | 3:43.09 | 294222 | 310955
24 | 69:06.06 | 3:19.47 | 310956 | 325927
25 | 72:25.53 | 3:53.04 | 325928 | 343406

Range status and errors

Selected range

Filename C:UsersMeijinDesktopLossless Galaxy ALLexxessThe Pretty Things2015 Bouquets From A Cloudy Sky (13CD + 2DVD Box Set Snapper Music)2014 Rarities CD1The Pretty Things - Rarities CD1.wav

Peak level 91.2 %
Extraction speed 8.1 X
Range quality 100.0 %
Test CRC 73440E79
Copy CRC 73440E79
Copy OK

No errors occurred

AccurateRip summary

Track 1 not present in database
Track 2 not present in database
Track 3 not present in database
Track 4 not present in database
Track 5 not present in database
Track 6 not present in database
Track 7 not present in database
Track 8 not present in database
Track 9 not present in database
Track 10 not present in database
Track 11 not present in database
Track 12 not present in database
Track 13 not present in database
Track 14 not present in database
Track 15 not present in database
Track 16 not present in database
Track 17 not present in database
Track 18 not present in database
Track 19 not present in database
Track 20 not present in database
Track 21 not present in database
Track 22 not present in database
Track 23 not present in database
Track 24 not present in database
Track 25 not present in database

None of the tracks are present in the AccurateRip database

End of status report

---- CUETools DB Plugin V2.1.4

[CTDB TOCID: NxgWWsX4Dou2GIEvAs9cRb0Jm18-] disk not present in database
Submit result: NxgWWsX4Dou2GIEvAs9cRb0Jm18- has been uploaded

==== Log checksum 7A7ABE77BE5AF4E6FCCCACBE1C967E6D326B20D11DEE52E7906C671743A0D7CF ====
2014 Rarities 2 01
The Pretty Things - Bouquets From A Cloudy Sky
01. Id Love Her If I Knew What To Do (Version 1 / Westbourne Terrace Demo)
02. Seen Her Face Before (Westbourne Terrace Demo)
03. Everything You Do Is Fine (Westbourne Terrace Demo)
04. Cold Stone (Westbourne Terrace Demo)
05. You Never Told Me Lies (Westbourne Terrace Demo)
06. Take A Look At Me (Westbourne Terrace Demo)
07. Wild And Free (Demo)
08. Id Love Her If I Knew What To Do (Version 2 / Demo)
09. Spider Woman (BBC Radio Session)
10. Route 66 (Live At The Hippodrome)
11. Joey (Mono US Single Mix)
12. Monster Club (Movie Soundtrack, 1980)
13. Cause And Effect (Out Of The Island, 1987)
14. Holding Onto Love (Outtake)
15. You Can`t Judge A Book (Pretty Thigs-Yardbird Blues Band, 1991)
16. Chain Of Fools (Pretty Thigs-Yardbird Blues Band, 1991)
17. No Questions (Pretty Thigs-Yardbird Blues Band, 1993)
18. Its All Over Now Baby Blue (Outtake)
19. Hoochie Coochie Man (Outtake)
20. Look Away Now (Outtake)
21. Helter Skelter (The White EP, Fruits Der Mer, 2012)

eac
Exact Audio Copy V1.0 beta 4 from 7. December 2014

EAC extraction logfile from 13. March 2015, 22:24

The Pretty Things / Rarities CD2

Used drive : PLEXTOR BD-R PX-B950SA Adapter: 1 ID: 1

Read mode : Secure
Utilize accurate stream : Yes
Defeat audio cache : Yes
Make use of C2 pointers : No

Read offset correction : 6
Overread into Lead-In and Lead-Out : No
Fill up missing offset samples with silence : Yes
Delete leading and trailing silent blocks : No
Null samples used in CRC calculations : Yes
Used interface : Native Win32 interface for Win NT & 2000

Used output format : Internal WAV Routines
Sample format : 44.100 Hz; 16 Bit; Stereo

TOC of the extracted CD

Track | Start | Length | Start sector | End sector
---------------------------------------------------------
1 | 0:00.00 | 2:18.68 | 0 | 10417
2 | 2:18.68 | 1:26.58 | 10418 | 16925
3 | 3:45.51 | 4:09.09 | 16926 | 35609
4 | 7:54.60 | 3:30.58 | 35610 | 51417
5 | 11:25.43 | 2:06.55 | 51418 | 60922
6 | 13:32.23 | 4:14.42 | 60923 | 80014
7 | 17:46.65 | 3:44.13 | 80015 | 96827
8 | 21:31.03 | 1:41.73 | 96828 | 104475
9 | 23:13.01 | 4:34.67 | 104476 | 125092
10 | 27:47.68 | 2:54.48 | 125093 | 138190
11 | 30:42.41 | 3:04.43 | 138191 | 152033
12 | 33:47.09 | 3:53.47 | 152034 | 169555
13 | 37:40.56 | 3:11.65 | 169556 | 183945
14 | 40:52.46 | 6:09.31 | 183946 | 211651
15 | 47:02.02 | 3:03.17 | 211652 | 225393
16 | 50:05.19 | 4:55.07 | 225394 | 247525
17 | 55:00.26 | 4:22.48 | 247526 | 267223
18 | 59:22.74 | 4:05.74 | 267224 | 285672
19 | 63:28.73 | 5:46.59 | 285673 | 311681
20 | 69:15.57 | 5:17.60 | 311682 | 335516
21 | 74:33.42 | 4:54.30 | 335517 | 357596

Range status and errors

Selected range

Filename C:UsersMeijinDesktopLossless Galaxy ALLexxessThe Pretty Things2015 Bouquets From A Cloudy Sky (13CD + 2DVD Box Set Snapper Music)2014 Rarities CD2The Pretty Things - Rarities CD2.wav

Peak level 77.0 %
Extraction speed 8.4 X
Range quality 100.0 %
Test CRC 400D06A4
Copy CRC 400D06A4
Copy OK

No errors occurred

AccurateRip summary

Track 1 not present in database
Track 2 not present in database
Track 3 not present in database
Track 4 not present in database
Track 5 not present in database
Track 6 not present in database
Track 7 not present in database
Track 8 not present in database
Track 9 not present in database
Track 10 not present in database
Track 11 not present in database
Track 12 not present in database
Track 13 not present in database
Track 14 not present in database
Track 15 not present in database
Track 16 not present in database
Track 17 not present in database
Track 18 not present in database
Track 19 not present in database
Track 20 not present in database
Track 21 not present in database

None of the tracks are present in the AccurateRip database

End of status report

---- CUETools DB Plugin V2.1.4

[CTDB TOCID: SWhKst9uipBToLe4OVnEoxxevuY-] disk not present in database
Submit result: SWhKst9uipBToLe4OVnEoxxevuY- has been uploaded

==== Log checksum 7DAF9E39E4A387B8E9CD97E92816EA10EAB02F9ACEE95957CD53183EC567CA67 ====

. :
Info
Swan Song Records / Reelin In The Years Productions / Snapper Music
Limited Edition Box (2000 Copies Only) / CD / DVD / Vinyl
● 11 studio albums on CD in gatefold digi-sleeves, including 42 bonus tracks.
● 2 Rarities CDs with 45 previously unreleased demos, alternate versions, live recordings, sessions and outtakes.
● 2 DVDs with new documentary Midnight To Six 1965-1970, produced by Reelin' In The Years, plus S.F. Sorrow Live at Abbey Road, The Pretty Things on Film, promo videos and interviews.
● 10'' replica acetate featuring 'Defecting Grey' full length demo and Turn My Head (studio version), plus 2 other previously unreleased tracks.
● A lavishly illustrated 100 page hardback book featuring a comprehensive Pretty Things history by Mike Stax (Ugly Things), plus rare photos and memorabilia.
● Family Tree and testimonial posters tracing the band from Little Boy Blue & The Blue Boys and The Rolling Stones to the present day and featuring hand-written messages from Pretty Things past and present.
● Court case history - Excerpts from confidential legal files from the bands battles to retrieve their rights and songs.
● Brand new art print by Phil May the original of which will be randomly placed in one lucky set! (One lucky box will have Phil Mays original signed art!)
Catalog Box: SMABX1029
Catalog CDs/DVDs: SMABX1029-1~15
Made in EU

/ Lossless / . (, , )
 [6.8 GB]