30
сен
2012

Brunning Sunflower Blues Band - Bullen Street Blues (1968) & Trackside Blues (1968) 2on1 (2000)

& Trackside Blues (feat.Peter Green) (1968)Brunning Sunflower Blues Band - Bullen Street Blues
Формат: FLAC, (image+.cue), lossless
Год выпуска: 2000
Страна: UK
Жанр: Blues-Rock
Продолжительность: 01:16:24
Описание:

Трeклист:

1968 - Bullen Street Blues:

01. Gone Back Home 04:06
02. Hit That Wine 02:33
03. Bullen Street Blues 04:03
04. No Idea 02:36
05. Shout Your Name and Call It 02:07
06. Take Your Hands Off Me 02:32
07. Fore Time Began 05:29
08. Something Tells Me 03:09
09. Big Belly Blues 03:06
10. Sunflower Boogie 03:29
11. Rockin' Chair 02:26

1968 - Trackside Blues:
12. Ride With Your Daddy Tonight 03:32
13. Tube Train Blues 03:19
14. Sunflower Shuffle 03:14
15. Simple Simon 02:15
16. I Met This Bird in Playboy 02:33
17. Ah! Soul (A.K.A. Uranus Pt.1) 02:35
18. It Takes Time 03:33
19. Baby You're the Real Thing 03:02
20. If You Let Me Love You 07:00
21. North Star 02:57
22. Closing Hours 03:10

Bonus Track:
23. Uranus (Take 2) 03:25

Доп. информация: Indigo Recordings IGOCD 2112 Z UK Remastered

Состав
Jeff Russell – Drums
Colin Jordan – Guitar
Mick Halls – Lead Guitar
Big Sunflower – Piano
Bob Brunning – Rhythm Guitar
Peter French – Vocals
Отчёт EAC
Exact Audio Copy V0.99 prebeta 4 from 23. January 2008

EAC extraction logfile from 28. May 2008, 21:50

Brunning Sunflower Blues Band / Bullen Street Blues/Trackside Blues

Used drive : _NEC DVD_RW ND-3550A Adapter: 5 ID: 0

Read mode : Secure
Utilize accurate stream : Yes
Defeat audio cache : Yes
Make use of C2 pointers : No

Read offset correction : 48
Overread into Lead-In and Lead-Out : No
Fill up missing offset samples with silence : Yes
Delete leading and trailing silent blocks : No
Null samples used in CRC calculations : Yes
Used interface : Native Win32 interface for Win NT & 2000

Used output format : Internal WAV Routines
Sample format : 44.100 Hz; 16 Bit; Stereo

TOC of the extracted CD

Track | Start | Length | Start sector | End sector
---------------------------------------------------------
1 | 0:00.00 | 4:06.72 | 0 | 18521
2 | 4:06.72 | 2:33.00 | 18522 | 29996
3 | 6:39.72 | 4:03.50 | 29997 | 48271
4 | 10:43.47 | 2:36.23 | 48272 | 59994
5 | 13:19.70 | 2:07.50 | 59995 | 69569
6 | 15:27.45 | 2:32.10 | 69570 | 80979
7 | 17:59.55 | 5:29.57 | 80980 | 105711
8 | 23:29.37 | 3:09.70 | 105712 | 119956
9 | 26:39.32 | 3:06.45 | 119957 | 133951
10 | 29:46.02 | 3:29.65 | 133952 | 149691
11 | 33:15.67 | 2:26.43 | 149692 | 160684
12 | 35:42.35 | 3:32.50 | 160685 | 176634
13 | 39:15.10 | 3:19.55 | 176635 | 191614
14 | 42:34.65 | 3:14.50 | 191615 | 206214
15 | 45:49.40 | 2:15.70 | 206215 | 216409
16 | 48:05.35 | 2:33.12 | 216410 | 227896
17 | 50:38.47 | 2:35.60 | 227897 | 239581
18 | 53:14.32 | 3:33.18 | 239582 | 255574
19 | 56:47.50 | 3:02.57 | 255575 | 269281
20 | 59:50.32 | 7:00.00 | 269282 | 300781
21 | 66:50.32 | 2:57.40 | 300782 | 314096
22 | 69:47.72 | 3:10.03 | 314097 | 328349
23 | 72:58.00 | 3:25.57 | 328350 | 343781

Range status and errors

Selected range

Filename D:DownloadsBrunning Sunflower Blues Band - Bullen Street Blues~Trackside BluesBrunning Sunflower Blues Band - Bullen Street Blues Trackside Blues.wav

Peak level 99.6 %
Range quality 100.0 %
Copy CRC 947966A1
Copy OK

No errors occurred

AccurateRip summary

Track 1 not present in database
Track 2 not present in database
Track 3 not present in database
Track 4 not present in database
Track 5 not present in database
Track 6 not present in database
Track 7 not present in database
Track 8 not present in database
Track 9 not present in database
Track 10 not present in database
Track 11 not present in database
Track 12 not present in database
Track 13 not present in database
Track 14 not present in database
Track 15 not present in database
Track 16 not present in database
Track 17 not present in database
Track 18 not present in database
Track 19 not present in database
Track 20 not present in database
Track 21 not present in database
Track 22 not present in database
Track 23 not present in database

None of the tracks are present in the AccurateRip database

End of status report

Релиз представлен группой:
Музыка / Lossless / Джаз, Блюз, Соул
СКАЧАТЬ БЕСПЛАТНО  [399.4 MB]